开启辅助访问 收藏本站

数字音乐论坛

 找回密码
 立即注册
快捷导航
查看: 932|回复: 6

[参赛作品] 鞍安 柔情似水3 [原抓WAV整轨/408MB/百度]

[复制链接] TA的其它主题
  • TA的每日心情

    昨天 22:15
  • 签到天数: 79 天

    [LV.6]常住居民II

    升级   86.05%

    2

    主题

    658

    帖子

    1721

    积分

    新手上路

    Rank: 1

    积分
    1721
    威望
    90
    金币
    874
    贡献
    9
    发表于 2019-10-11 18:30:07 | 显示全部楼层 |阅读模式
    鞍安简介:
    如黄鹂出谷般委婉轻灵的嗓音,百转千回...
    温柔磁性唯美的女声,吟唱之中流泻出来的是曼妙美声,
    是天地间最美的心灵对话...任何歌曲在彤菲的用心诠释下,
    总能用另一种不同的面貌呈现,温柔婉约,极具魅力,
    令人闻声而醉......
    IMG_20190906_111834.jpg
    IMG_20190906_111901.jpg
    IMG_20190906_111957.jpg
    专辑:柔情似水3
    歌手:鞍安
    出版日期:2003年07月
    厦门音像出版社出版发行
    广东詠声成品有限公司制作出品

    01.走西口
    02.梦里
    03.好人好梦
    04.雨蝶
    05.怨苍天变了心
    06.爱我的人和我爱的人
    07.高天上流云

    08.别亦难
    09.爱上一个不回家的人
    10.追梦人
    11.二地书母子情
    12.月儿弯弯照九州
    13.风中有朵雨做的云
    14.血染的风采
    15.弯弯的月亮
    游客,如果您要查看本帖隐藏内容请回复

    鞍安 柔情似水3 [WAV整轨]密码.rar (147 Bytes, 下载次数: 9, 售价: 25 金币)

    评分

    参与人数 1威望 +8 金币 +16 贡献 +8 收起 理由
    四季歌 + 8 + 16 + 8

    查看全部评分

    回复

    使用道具 举报

  • TA的每日心情

    昨天 22:15
  • 签到天数: 79 天

    [LV.6]常住居民II

    升级   86.05%

    2

    主题

    658

    帖子

    1721

    积分

    新手上路

    Rank: 1

    积分
    1721
    威望
    90
    金币
    874
    贡献
    9
     楼主| 发表于 2019-10-11 21:16:11 | 显示全部楼层
    本帖最后由 弯弯的月亮 于 2019-10-11 21:19 编辑

    数字音乐论坛全网独家首发 附LOG

    Exact Audio Copy V0.99 prebeta 5 from 4. May 2009

    EAC 抓取日志文件从5. 九月 2019, 21:32

    - / -

    使用驱动器  :PIONEER DVD-RW  DVR-S21   Adapter: 0  ID: 1

    读取模式     : 保护
    使用精确流   : 是
    废除音频缓冲 : 是
    使用 C2 指针 : 否

    读取偏移校正                   : 0
    读取 Lead-In 和 Lead-Out       : 否
    用静音填充抓取中丢失偏移的采样 : 是
    去除首尾静音块                 : 否
    在 CRC 计算中使用了空样本      : 否
    已用接口                       : Win NT 及 2000 本地 Win32 接口

    所用输出格式 : 内部 WAV 函数
    样本格式     : 44.100 Hz;16 Bit;立体声


    被抓轨 CD 的 TOC

         音轨 |   开始   |   长度   | 起始扇区 | 结尾扇区
        --------------------------------------------------
           1  |  0:00.00 |  3:17.00 |       0  |   14774  
           2  |  3:17.00 |  5:08.38 |   14775  |   37912  
           3  |  8:25.38 |  4:24.65 |   37913  |   57777  
           4  | 12:50.28 |  3:48.74 |   57778  |   74951  
           5  | 16:39.27 |  4:05.27 |   74952  |   93353  
           6  | 20:44.54 |  4:44.10 |   93354  |  114663  
           7  | 25:28.64 |  3:04.39 |  114664  |  128502  
           8  | 28:33.28 |  3:29.14 |  128503  |  144191  
           9  | 32:02.42 |  5:01.02 |  144192  |  166768  
          10  | 37:03.44 |  3:30.56 |  166769  |  182574  
          11  | 40:34.25 |  3:11.37 |  182575  |  196936  
          12  | 43:45.62 |  2:45.61 |  196937  |  209372  
          13  | 46:31.48 |  4:13.40 |  209373  |  228387  
          14  | 50:45.13 |  2:59.14 |  228388  |  241826  
          15  | 53:44.27 |  3:20.00 |  241827  |  256826  


    范围状态及错误

    已选择范围

         文件名 E:\EAC\柔情似水.wav

         峰值电平 100.0 %
         范围质量 100.0 %
         复制 CRC 106D8F70
         复制成功

    没有错误发生

    状态报告结尾
    回复

    使用道具 举报

  • TA的每日心情
    郁闷
    12 小时前
  • 签到天数: 137 天

    [LV.7]常住居民III

    升级   93.33%

    2

    主题

    1816

    帖子

    6733

    积分

    中级会员

    Rank: 3Rank: 3

    积分
    6733
    威望
    759
    金币
    3399
    贡献
    0
    发表于 2019-10-12 08:08:53 | 显示全部楼层
    鞍安翻唱的这些歌曲发行了好多个版本,也蛮好听的。
    回复

    使用道具 举报

  • TA的每日心情
    开心
    昨天 10:54
  • 签到天数: 40 天

    [LV.5]常住居民I

    升级   43.7%

    14

    主题

    1118

    帖子

    2437

    积分

    注册会员

    Rank: 2

    积分
    2437
    威望
    596
    金币
    49
    贡献
    78
    发表于 2019-10-13 18:53:51 | 显示全部楼层
    鞍安是谁  是不是有好多名字?我记得她唱过闽南语歌曲
    回复

    使用道具 举报

    该用户从未签到

    升级   100%

    1

    主题

    74

    帖子

    242

    积分

    禁止发言

    积分
    242
    威望
    62
    金币
    44
    贡献
    0
    发表于 2019-10-14 11:57:17 | 显示全部楼层
    提示: 作者被禁止或删除 内容自动屏蔽
    回复

    使用道具 举报

  • TA的每日心情
    郁闷
    4 天前
  • 签到天数: 101 天

    [LV.6]常住居民II

    升级   33.35%

    3

    主题

    1955

    帖子

    4334

    积分

    中级会员

    Rank: 3Rank: 3

    积分
    4334
    威望
    1117
    金币
    137
    贡献
    8
    发表于 2019-10-14 14:54:38 | 显示全部楼层
    歌手还没听说过,不过曲目非常熟悉。
    回复

    使用道具 举报

  • TA的每日心情
    慵懒
    2020-7-20 20:36
  • 签到天数: 1 天

    [LV.1]初来乍到

    升级   7.05%

    2

    主题

    66

    帖子

    141

    积分

    新手上路

    Rank: 1

    积分
    141
    威望
    34
    金币
    7
    贡献
    0
    发表于 2019-12-13 01:06:24 | 显示全部楼层
    还是很好听的别有一番风味
    回复

    使用道具 举报

    您需要登录后才可以回帖 登录 | 立即注册

    本版积分规则

    Archiver|手机版|小黑屋|数字音乐论坛 ( 津ICP备09009336号-1 )

    GMT+8, 2020-8-5 12:25 , Processed in 0.453125 second(s), 37 queries .

    Powered by Discuz! X3.4 Licensed

    © 2008-2020 上网要文明 发言要理性 本站禁灌水

    快速回复 返回顶部 返回列表