sunshine
开启辅助访问 天气与日历 收藏本站充币切换到宽版

数字音乐论坛

 找回密码
 立即注册
查看: 788|回复: 9

[原创][谭顺成-海鸥][WAV/CEU/406M][百度网盘]

[复制链接] TA的其它主题
  • TA的每日心情

    2021-7-12 07:48
  • 签到天数: 169 天

    [LV.7]常住居民III

    升级   85.67%

    75

    主题

    496

    帖子

    9785

    积分

    金牌会员

    Rank: 5Rank: 5

    原创高手勋章

    鲜花(64) 鸡蛋(0)
    发表于 2021-4-26 18:55:02 | 显示全部楼层 |阅读模式
    1.jpg


    2.jpg


    3.jpg


    【专辑名称】谭顺成-海鸥

    【发行公司】丽风唱片

    【唱片编号】LFCD8282

    【发行时间】2016年复刻盘

    【专辑语言】国语

    【资源格式】WAV+CUE

    【专辑曲】

    01、海鸥

    02、少年爱姑娘

    03、小雨

    04、因为有了你的爱

    05、我家在哪里

    06、为你相思喝苦酒

    07、情海

    08、千言万语


    [audio]
    [/audio]


    09、我怎能 离开你

    10、这里是好地方

    11、青青河畔草


    [audio]
    [/audio]


    12、相聚在一起

    13、多少欢笑多少泪

    14、窗外雨濛濛


    游客,如果您要查看本帖隐藏内容请回复


    提取码.rar (89 Bytes, 下载次数: 10, 售价: 68 金币)


    Exact Audio Copy V1.6 from 23. October 2020

    EAC 抓取日志文件从26. 四月 2021, 18:24

    未知艺术家 / 未知标题

    使用驱动器  :PLDS    DVD-RW DS8A8SH   Adapter: 1  ID: 0

    读取模式      : 可靠Secure
    使用精确流     : 是
    清空音频缓存    : 否
    使用 C2 指示器 : 否

    读取偏移校正:               : 6
    读取 Lead-In 和 Lead-Out : 否
    用静音填充抓取中丢失偏移的采样       : 是
    去除首尾静音块               : 否
    在CRC 计算中使用了空样本       : 是
    已用接口                  : Win NT 及 2000 本地 Win32 接口

    所用输出模式: : 内部 WAV 函数
    样本格式    : 44.100 Hz; 16 Bit; 立体声


    已抓取 CD 的 TOC

         音轨 |    起始    |    长度    |  起始扇区  |  结束扇区  
        --------------------------------------------
          1 |  0:00.00 |  2:40.22 |      0 |  12021
          2 |  2:40.22 |  2:58.18 |  12022 |  25389
          3 |  5:38.40 |  2:51.31 |  25390 |  38245
          4 |  8:29.71 |  2:29.73 |  38246 |  49493
          5 | 10:59.69 |  3:14.48 |  49494 |  64091
          6 | 14:14.42 |  2:20.63 |  64092 |  74654
          7 | 16:35.30 |  3:04.28 |  74655 |  88482
          8 | 19:39.58 |  3:21.33 |  88483 | 103590
          9 | 23:01.16 |  2:29.52 | 103591 | 114817
         10 | 25:30.68 |  3:12.20 | 114818 | 129237
         11 | 28:43.13 |  2:30.41 | 129238 | 140528
         12 | 31:13.54 |  2:58.13 | 140529 | 153891
         13 | 34:11.67 |  3:20.46 | 153892 | 168937
         14 | 37:32.38 |  2:41.11 | 168938 | 181023


    范围状态及错误

    已选择范围

         文件名 F:\分享\未知艺术家 - 未知标题.wav

         峰值电平 100.0 %
         抓取速度 4.2 X
         范围质量 99.9 %
         复制 CRC 1E345A4D
         复制成功

    没有错误发生

    状态报告结尾

    ---- CUETools DB Plugin V2.1.6

    [CTDB TOCID: ScBCwfwgyrjvvokALKbViz28XoM-] disk not present in database
    Submit result: ScBCwfwgyrjvvokALKbViz28XoM- has been uploaded



    评分

    参与人数 1威望 +18 金币 +88 贡献 +18 收起 理由
    WSAN + 18 + 88 + 18 赞一个!

    查看全部评分

    鲜花鸡蛋

    WSAN  在2021-4-26 22:21  送朵鲜花  并说:鲜花鼓励一下
    回复 鲜花(64) 鸡蛋(0)

    使用道具 举报

  • TA的每日心情
    擦汗
    2021-6-25 14:30
  • 签到天数: 364 天

    [LV.8]以坛为家I

    升级   100%

     成长值: 1530

    94

    主题

    719

    帖子

    1万

    积分

    VIP

    Rank: 5Rank: 5

    原创高手勋章

    鲜花(25) 鸡蛋(0)
    发表于 2021-4-26 21:13:00 | 显示全部楼层
    坐上沙发了 后来的坐地下凉快
    回复 鲜花(25) 鸡蛋(0)

    使用道具 举报

  • TA的每日心情

    昨天 22:44
  • 签到天数: 451 天

    [LV.9]以坛为家II

    升级   0%

    61

    主题

    2396

    帖子

    1万

    积分

    元老会员

    Rank: 6Rank: 6

    原创高手勋章

    鲜花(0) 鸡蛋(0)
    发表于 2021-4-26 22:30:03 | 显示全部楼层
    谭顺成的CD非常难得,也很喜欢。收藏了。
    回复 鲜花(0) 鸡蛋(0)

    使用道具 举报

  • TA的每日心情
    开心
    2021-7-18 07:37
  • 签到天数: 31 天

    [LV.5]常住居民I

    升级   14.4%

    1

    主题

    92

    帖子

    288

    积分

    新手上路

    Rank: 1

    鲜花(0) 鸡蛋(0)
    发表于 2021-4-27 22:25:45 | 显示全部楼层
    谭顺成的这些情歌很甜蜜的,谢谢楼主提供!
    回复 鲜花(0) 鸡蛋(0)

    使用道具 举报

  • TA的每日心情
    奋斗
    4 天前
  • 签到天数: 55 天

    [LV.5]常住居民I

    升级   18.4%

    1

    主题

    122

    帖子

    368

    积分

    新手上路

    Rank: 1

    鲜花(0) 鸡蛋(0)
    发表于 2021-5-11 22:20:39 | 显示全部楼层
    大牌歌手的产品还是让人放心的,谭顺成一直是我喜欢的歌手
    回复 鲜花(0) 鸡蛋(0)

    使用道具 举报

  • TA的每日心情
    难过
    2021-7-14 15:30
  • 签到天数: 90 天

    [LV.6]常住居民II

    升级   16.6%

    1

    主题

    134

    帖子

    332

    积分

    新手上路

    Rank: 1

    鲜花(0) 鸡蛋(0)
    发表于 2021-5-12 18:27:36 | 显示全部楼层
    几十年了,已深深的印在记忆里。感谢
    回复 鲜花(0) 鸡蛋(0)

    使用道具 举报

  • TA的每日心情
    慵懒
    4 天前
  • 签到天数: 270 天

    [LV.8]以坛为家I

    升级   71.83%

    7

    主题

    1248

    帖子

    5873

    积分

    中级会员

    Rank: 3Rank: 3

    鲜花(0) 鸡蛋(0)
    发表于 2021-5-21 10:11:40 | 显示全部楼层
    谭顺成的专辑在七八十年代时期挺流行的。
    回复 鲜花(0) 鸡蛋(0)

    使用道具 举报

  • TA的每日心情

    2021-7-25 19:52
  • 签到天数: 48 天

    [LV.5]常住居民I

    升级   91.8%

    14

    主题

    95

    帖子

    1836

    积分

    新手上路

    Rank: 1

    鲜花(2) 鸡蛋(0)
    发表于 2021-6-13 11:22:02 | 显示全部楼层
    谭顺成的独唱专辑市面很少见
    回复 鲜花(2) 鸡蛋(0)

    使用道具 举报

  • TA的每日心情

    昨天 15:56
  • 签到天数: 34 天

    [LV.5]常住居民I

    升级   17.3%

    3

    主题

    77

    帖子

    346

    积分

    新手上路

    Rank: 1

    鲜花(0) 鸡蛋(0)
    发表于 2021-7-14 17:29:19 | 显示全部楼层
    谭顺成的歌和歌剧都不错
    回复 鲜花(0) 鸡蛋(0)

    使用道具 举报

    您需要登录后才可以回帖 登录 | 立即注册

    本版积分规则

    快速回复 返回顶部 返回列表