请选择 进入手机版 | 继续访问电脑版
开启辅助访问 收藏本站

数字音乐论坛

 找回密码
 立即注册
查看: 356|回复: 10

[原创] [群星《中华民歌 — 经典篇(二)》][WAV/693MB][百度]

[复制链接]

签到天数: 213 天

[LV.7]常住居民III

78

主题

565

帖子

6776

积分

版主

Rank: 7Rank: 7Rank: 7

积分
6776
威望
1134
金币
3592
贡献
346

斑竹专用勋章

发表于 2018-3-7 21:12:32 | 显示全部楼层 |阅读模式







专辑名称:中华民歌经典篇(二)
出版公司:吉林省长白山音像出版社
发行年代:2000年
发行编码:ISRC CN-D07-00-353-00/A.J6
曲目数量:21
资源类型:CD→WAV+CUE


01 唱支山歌给党听 …………… (才旦卓玛)
02 大海啊,故乡 ………………… (成方圆)
03 党啊,亲爱的妈妈 …………… (殷秀梅)
04 红梅赞 …………………………… (铁金)
05 洪湖水,浪打浪 ……………… (宋祖英)
06 花儿为什么这样红 ……………… (韦唯)
07 黄土高坡 ……………………… (杭天琪)
08 苦乐年华 ……………………… (范琳琳)
09 浏阳河 ………………………… (李谷一)
10 妈妈的吻 ……………………… (李玲玉)
11 梦驼铃 ………………………… (张明敏)
12 南泥湾 ………………………… (郭兰英)
13 谁不说俺家乡好 ……………… (任桂珍)
14 塔里木河 ……………………… (克里木)
15 望星空 ………………………… (董文华)
16 我爱五指山,我爱万泉河 …… (蔡其平)
17 我的祖国 ……………………… (彭丽媛)
18 乌苏里船歌 ……………………… (郭颂)
19 英雄赞歌 ……………………… (马玉涛)
20 有一个美丽的传说 …………… (蒋大为)
21 在希望的田野上 ……………… (彭丽媛)



试听歌曲:《唱支山歌给党听》


下载地址:

游客,如果您要查看本帖隐藏内容请回复

个人藏品转制,仅供试听交流,切勿用作商业目的!






评分

已有 1 人评分威望 金币 贡献 收起 理由
WSAN + 8 + 16 + 8 很给力!

总评分: 威望 + 8 金币 + 16 贡献 + 8 查看全部评分

回复

使用道具 举报

签到天数: 213 天

[LV.7]常住居民III

78

主题

565

帖子

6776

积分

版主

Rank: 7Rank: 7Rank: 7

积分
6776
威望
1134
金币
3592
贡献
346

斑竹专用勋章

 楼主| 发表于 2018-3-7 21:12:47 | 显示全部楼层
本帖最后由 WSAN 于 2018-3-8 10:46 编辑

非正版CD,不喜勿下!

                               
登录/注册后可看大图



                               
登录/注册后可看大图



                               
登录/注册后可看大图



试听:在希望的田野上





Exact Audio Copy V1.2 from 12. August 2016
EAC 抓取日志文件从5. 三月 2018, 15:35
群星 / 中华民歌 - 经典篇(2)
使用驱动器  :PLDS    DVD-RW DS8A8SH   Adapter: 1  ID: 0
读取模式      : 可靠Secure
使用精确流     : 是
清空音频缓存    : 是
使用 C2 指示器 : 否
组合读写偏移校正:             : 0
读取 Lead-In 和 Lead-Out : 否
用静音填充抓取中丢失偏移的采样       : 是
去除首尾静音块               : 否
在CRC 计算中使用了空样本       : 是
已用接口                  : Win NT 及 2000 本地 Win32 接口
所用输出模式: : 内部 WAV 函数
样本格式    : 44.100 Hz; 16 Bit; 立体声

已抓取 CD 的 TOC
     音轨 |    起始    |    长度    |  起始扇区  |  结束扇区  
    --------------------------------------------
      1 |  0:00.00 |  3:13.58 |      0 |  14532
      2 |  3:13.58 |  3:18.49 |  14533 |  29431
      3 |  6:32.32 |  3:11.37 |  29432 |  43793
      4 |  9:43.69 |  3:10.46 |  43794 |  58089
      5 | 12:54.40 |  3:25.23 |  58090 |  73487
      6 | 16:19.63 |  3:59.33 |  73488 |  91445
      7 | 20:19.21 |  3:49.35 |  91446 | 108655
      8 | 24:08.56 |  3:13.69 | 108656 | 123199
      9 | 27:22.50 |  1:59.41 | 123200 | 132165
     10 | 29:22.16 |  3:05.27 | 132166 | 146067
     11 | 32:27.43 |  3:42.64 | 146068 | 162781
     12 | 36:10.32 |  2:20.09 | 162782 | 173290
     13 | 38:30.41 |  2:41.21 | 173291 | 185386
     14 | 41:11.62 |  3:00.61 | 185387 | 198947
     15 | 44:12.48 |  3:59.29 | 198948 | 216901
     16 | 48:12.02 |  2:42.29 | 216902 | 229080
     17 | 50:54.31 |  3:18.24 | 229081 | 243954
     18 | 54:12.55 |  3:54.24 | 243955 | 261528
     19 | 58:07.04 |  4:12.31 | 261529 | 280459
     20 | 62:19.35 |  2:59.70 | 280460 | 293954
     21 | 65:19.30 |  2:56.34 | 293955 | 307188

范围状态及错误
已选择范围
     文件名 D:\APE\CD抓轨\群星 - 中华民歌 - 经典篇(2).wav
     峰值电平 100.0 %
     抓取速度 3.9 X
     范围质量 100.0 %
     复制 CRC 263FF072
     复制成功
没有错误发生
状态报告结尾
---- CUETools DB Plugin V2.1.6
[CTDB TOCID: TS.CbzL3CyKu9waO2.HsUwccRFs-] disk not present in database
Submit result: TS.CbzL3CyKu9waO2.HsUwccRFs- has been uploaded

回复

使用道具 举报

签到天数: 211 天

[LV.7]常住居民III

1

主题

342

帖子

624

积分

新手上路

Rank: 1

积分
624
威望
127
金币
28
贡献
0
发表于 2018-3-7 21:32:31 | 显示全部楼层
下载欣赏了,喜欢听,谢谢!
回复

使用道具 举报

签到天数: 207 天

[LV.7]常住居民III

50

主题

542

帖子

8494

积分

高级会员

Rank: 4

积分
8494
威望
1214
金币
5011
贡献
508

发帖高手勋章

发表于 2018-3-7 21:43:21 | 显示全部楼层
经典民歌,名家版本,值得珍藏。忘版辛苦了!
回复

使用道具 举报

签到天数: 171 天

[LV.7]常住居民III

4

主题

298

帖子

872

积分

新手上路

Rank: 1

积分
872
威望
142
金币
278
贡献
12
发表于 2018-3-8 08:59:59 | 显示全部楼层
谢谢分享民歌资源
回复

使用道具 举报

签到天数: 100 天

[LV.6]常住居民II

1

主题

398

帖子

1533

积分

新手上路

Rank: 1

积分
1533
威望
288
金币
559
贡献
0
发表于 2018-3-8 22:25:03 | 显示全部楼层
看情况,估计是广东太平洋的音源,这些资料都很珍贵。
回复

使用道具 举报

签到天数: 207 天

[LV.7]常住居民III

28

主题

1741

帖子

5569

积分

中级会员

Rank: 3Rank: 3

积分
5569
威望
1405
金币
964
贡献
54
发表于 2018-3-11 15:57:01 | 显示全部楼层
选曲的时间跨度很大,从50年代一直到80年代
回复

使用道具 举报

签到天数: 20 天

[LV.4]偶尔看看III

1

主题

250

帖子

712

积分

新手上路

Rank: 1

积分
712
威望
224
金币
10
贡献
4
发表于 2018-3-18 18:30:40 | 显示全部楼层
音质没得说,真好,谢谢!!辛苦了
回复

使用道具 举报

签到天数: 8 天

[LV.3]偶尔看看II

1

主题

47

帖子

174

积分

禁止访问

积分
174
威望
38
金币
51
贡献
0
发表于 2018-6-28 12:16:01 | 显示全部楼层
提示: 作者被禁止或删除 内容自动屏蔽
回复

使用道具 举报

签到天数: 14 天

[LV.3]偶尔看看II

3

主题

428

帖子

1198

积分

禁止访问

积分
1198
威望
375
金币
20
贡献
0
发表于 2018-6-29 23:52:17 | 显示全部楼层
提示: 作者被禁止或删除 内容自动屏蔽
回复

使用道具 举报

您需要登录后才可以回帖 登录 | 立即注册

本版积分规则

数字音乐论坛

Archiver|手机版|小黑屋|数字音乐论坛 ( 津ICP备09009336号-1 )

GMT+8, 2018-7-20 07:08 , Processed in 0.156917 second(s), 27 queries .

Powered by Discuz! X3.4

© 2008-2018 Comsenz Inc.|上网要文明 发言要理性 本站禁灌水

快速回复 返回顶部 返回列表