请选择 进入手机版 | 继续访问电脑版
查看: 66|回复: 5

[原创] 西北狼生日快乐 卢秀梅《父老乡亲》[WAV/408MB/百度] 原抓

[复制链接]

签到天数: 119 天

[LV.6]常住居民II

49

主题

410

帖子

7729

积分

高级会员

Rank: 4

积分
7729
威望
1137
金币
4557
贡献
483

发帖高手勋章

发表于 2018-4-11 21:39:47 | 显示全部楼层 |阅读模式
本帖最后由 ZHZ 于 2018-4-11 21:47 编辑


FM.jpg
FD.jpg
CD.jpg

专辑:卢秀梅《父老乡亲》
版本:中国歌坛名人经典珍藏版
出版发行:中国长城艺术文化中心
ISRC CN-A09-98-318-00/A.J6
格式:WAV+CUE 原抓




曲目:
01.父老乡亲
02.相亲亲
03.情暖人间
04.山丹丹开花红艳艳
05.红梅赞
06.海角天涯
07.欢乐今宵
08.俺的家乡真是美
09.巴颜喀拉
10.看秧歌


游客,如果您要查看本帖隐藏内容请回复

评分

参与人数 1威望 +8 金币 +16 贡献 +8 收起 理由
教官 + 8 + 16 + 8 很给力!

查看全部评分

回复

使用道具 举报

签到天数: 119 天

[LV.6]常住居民II

49

主题

410

帖子

7729

积分

高级会员

Rank: 4

积分
7729
威望
1137
金币
4557
贡献
483

发帖高手勋章

 楼主| 发表于 2018-4-11 21:41:40 | 显示全部楼层
Exact Audio Copy V1.3 from 2. September 2016

EAC 抓取日志文件从19. 三月 2018, 19:43

未知艺术家 / 未知标题

使用驱动器  :ASUS    DRW-24D1ST   Adapter: 1  ID: 0

读取模式      : 可靠Secure
使用精确流     : 是
清空音频缓存    : 否
使用 C2 指示器 : 否

组合读写偏移校正:             : 0
读取 Lead-In 和 Lead-Out : 否
用静音填充抓取中丢失偏移的采样       : 是
去除首尾静音块               : 否
在CRC 计算中使用了空样本       : 是
已用接口                  : Win NT 及 2000 本地 Win32 接口

所用输出模式: : 内部 WAV 函数
样本格式    : 44.100 Hz; 16 Bit; 立体声


已抓取 CD 的 TOC

     音轨 |    起始    |    长度    |  起始扇区  |  结束扇区  
    --------------------------------------------
      1 |  0:00.00 |  4:40.00 |      0 |  20999
      2 |  4:40.00 |  3:35.00 |  21000 |  37124
      3 |  8:15.00 |  4:15.00 |  37125 |  56249
      4 | 12:30.00 |  3:38.00 |  56250 |  72599
      5 | 16:08.00 |  3:57.00 |  72600 |  90374
      6 | 20:05.00 |  4:08.00 |  90375 | 108974
      7 | 24:13.00 |  3:28.00 | 108975 | 124574
      8 | 27:41.00 |  4:21.00 | 124575 | 144149
      9 | 32:02.00 |  4:05.00 | 144150 | 162524
     10 | 36:07.00 |  4:14.00 | 162525 | 181574


范围状态及错误

已选择范围

     文件名 F:\未知艺术家 - 未知标题.wav

     峰值电平 100.0 %
     抓取速度 2.5 X
     范围质量 99.9 %
     复制 CRC A2FD594D
     复制成功

没有错误发生

状态报告结尾

---- CUETools DB Plugin V2.1.6

[CTDB TOCID: _NBm5UpAmcweAUhUk2tPI7ZEVrs-] disk not present in database
Submit result: _NBm5UpAmcweAUhUk2tPI7ZEVrs- has been uploaded
回复

使用道具 举报

签到天数: 115 天

[LV.6]常住居民II

11

主题

205

帖子

5388

积分

管理员

Rank: 9Rank: 9Rank: 9

积分
5388
威望
337
金币
4354
贡献
140

最佳新人活跃会员热心会员推广达人宣传达人灌水之王突出贡献优秀版主荣誉管理论坛元老

发表于 2018-4-12 19:52:16 | 显示全部楼层
哈哈,谢谢谢谢!
回复

使用道具 举报

签到天数: 92 天

[LV.6]常住居民II

2

主题

531

帖子

1573

积分

新手上路

Rank: 1

积分
1573
威望
426
金币
190
贡献
0
发表于 2018-4-13 19:07:14 | 显示全部楼层
父老乡亲和山丹丹花开红艳艳最喜欢听,但还是喜欢老风格的版本。
回复

使用道具 举报

签到天数: 117 天

[LV.6]常住居民II

21

主题

1428

帖子

4311

积分

中级会员

Rank: 3Rank: 3

积分
4311
威望
1197
金币
453
贡献
36
发表于 5 天前 | 显示全部楼层
同祝狼先生生日快乐!很不错的民歌手,可惜英年早逝。
回复

使用道具 举报

签到天数: 31 天

[LV.5]常住居民I

1

主题

67

帖子

140

积分

新手上路

Rank: 1

积分
140
威望
35
金币
3
贡献
0
发表于 前天 21:04 | 显示全部楼层
很好听的歌曲啊,谢谢了。
回复

使用道具 举报

您需要登录后才可以回帖 登录 | 立即注册

本版积分规则

快速回复 返回顶部 返回列表