请选择 进入手机版 | 继续访问电脑版

数字音乐论坛

 找回密码
 立即注册
查看: 708|回复: 30

[转帖][秦永甜甜恋歌][WAV448MB][百度]

[复制链接]

该用户从未签到

2

主题

26

帖子

967

积分

版主

Rank: 7Rank: 7Rank: 7

威望
52
金币
802
贡献
35
警告
0
注册时间
2016-4-22
最后登录
2017-1-14
在线时间
17 小时
积分
967

突出贡献优秀版主荣誉会员论坛元老

发表于 2016-7-19 20:14:22 | 显示全部楼层 |阅读模式

马上注册,结交更多好友,享用更多功能,让你轻松玩转社区。

您需要 登录 才可以下载或查看,没有帐号?立即注册

x
FM.JPG CD.JPG FD.JPG


专辑名称:东南亚酒廊情歌·甜甜恋歌
专辑歌手:秦永
专辑编码:CN-F17-93-318-00/A.J6
出版发行:汕头海洋音像出版社出版发行
发行日期:1993年
资源格式:WAV+CUE
感谢原创

专辑曲目:
01.水长流
02.爱情如水向东流
03.抓不住你的心
04.我没有骗你
05.真情
06.我不该爱你
07.轻烟
08.真心真意爱你
09.追
10.一去不回头
11.回头我也不要你
12.星星之夜
13.重逢
14.恨不钟情在当年
15.几度花落时
16.因为我爱你
17.爱你一万倍
18.我在你左右

下载地址
游客,如果您要查看本帖隐藏内容请回复




评分

参与人数 1威望 +4 金币 +24 贡献 +4 收起 理由
WSAN + 4 + 24 + 4

查看全部评分

回复

使用道具 举报

该用户从未签到

2

主题

26

帖子

967

积分

版主

Rank: 7Rank: 7Rank: 7

威望
52
金币
802
贡献
35
警告
0
注册时间
2016-4-22
最后登录
2017-1-14
在线时间
17 小时
积分
967

突出贡献优秀版主荣誉会员论坛元老

 楼主| 发表于 2016-7-19 20:17:08 | 显示全部楼层
Exact Audio Copy V0.99 beta 3 from 29. August 2011

EAC 抓取日志文件从25. 十月 2012, 12:21

秦永/ 东南亚酒廊情歌·甜甜恋歌

使用驱动器  :PIONEER DVD-RW DVR-111

读取模式      : 安全模式
使用精确流     : 是
清空音频缓存    : 是
使用 C2 指示器 : 否

读取偏移校正:               16
读取 Lead-In 和 Lead-Out : 否
用静音填充抓取中丢失偏移的采样       : 是
去除首尾静音块               : 否
在CRC 计算中使用了空样本       : 是
已用接口                  : Win NT 及 2000 本地 Win32 接口

所用输出模式: : 内部 WAV 函数
样本格式    : 44.100 Hz; 16 Bit; 立体声


已抓取 CD 的 TOC

     音轨 |    起始    |    长度    |  起始扇区  |  结束扇区  
    --------------------------------------------
      1 |  0:00.00 |  7:33.14 |      0 |  33988
      2 |  7:33.14 |  7:26.05 |  33989 |  67443
      3 | 14:59.19 |  7:05.74 |  67444 |  99392
      4 | 22:05.18 |  7:48.51 |  99393 | 134543
      5 | 29:53.69 |  7:10.13 | 134544 | 166806
      6 | 37:04.07 |  7:13.23 | 166807 | 199304


范围状态及错误

已选择范围

     文件名 D:\下载文件\东南亚酒廊情歌·甜甜恋歌.wav

     峰值电平 90.3 %
     抓取速度 4.0 X
     范围质量 100.0 %
     复制 CRC 39A612ED
     复制成功

没有错误发生


状态报告结尾


回复 支持 反对

使用道具 举报

  • TA的每日心情
    开心
    13 小时前
  • 签到天数: 152 天

    [LV.7]常住居民III

    304

    主题

    773

    帖子

    2万

    积分

    超级版主

    Rank: 8Rank: 8

    威望
    4118
    金币
    17075
    贡献
    2765
    警告
    0
    注册时间
    2016-4-21
    最后登录
    2017-1-19
    在线时间
    620 小时
    积分
    28909

    突出贡献优秀版主荣誉会员论坛元老

    发表于 2016-7-19 20:17:29 | 显示全部楼层
    首席支持温版带来的好作品,谢谢您!
    回复 支持 反对

    使用道具 举报

  • TA的每日心情
    开心
    18 小时前
  • 签到天数: 250 天

    [LV.8]以坛为家I

    2

    主题

    394

    帖子

    4008

    积分

    中级会员

    Rank: 3Rank: 3

    威望
    89
    金币
    3436
    贡献
    0
    警告
    0
    注册时间
    2016-4-19
    最后登录
    2017-1-19
    在线时间
    57 小时
    积分
    4008
    发表于 2016-7-19 21:07:13 | 显示全部楼层
    很儒雅的歌手。
    回复 支持 反对

    使用道具 举报

  • TA的每日心情
    开心
    2017-1-1 23:24
  • 签到天数: 46 天

    [LV.5]常住居民I

    0

    主题

    218

    帖子

    752

    积分

    新手上路

    Rank: 1

    威望
    167
    金币
    190
    贡献
    10
    警告
    0
    注册时间
    2016-4-19
    最后登录
    2017-1-11
    在线时间
    54 小时
    积分
    752
    发表于 2016-7-19 23:24:42 | 显示全部楼层
    感谢分享,这么好的专辑收藏了。
    回复 支持 反对

    使用道具 举报

  • TA的每日心情

    9 分钟前
  • 签到天数: 180 天

    [LV.7]常住居民III

    1

    主题

    652

    帖子

    1581

    积分

    注册会员

    Rank: 2

    威望
    451
    金币
    27
    贡献
    0
    警告
    0
    注册时间
    2016-4-22
    最后登录
    2017-1-19
    在线时间
    72 小时
    积分
    1581
    发表于 2016-7-20 07:42:02 | 显示全部楼层
    喜欢他的歌声,谢谢分享
    回复 支持 反对

    使用道具 举报

  • TA的每日心情
    开心
    2016-11-8 07:50
  • 签到天数: 124 天

    [LV.7]常住居民III

    0

    主题

    556

    帖子

    643

    积分

    禁止访问

    威望
    31
    金币
    45
    贡献
    -20
    警告
    0
    注册时间
    2016-4-19
    最后登录
    2016-12-7
    在线时间
    129 小时
    积分
    643
    发表于 2016-7-20 08:07:49 | 显示全部楼层
    提示: 作者被禁止或删除 内容自动屏蔽
    回复 支持 反对

    使用道具 举报

  • TA的每日心情
    开心
    昨天 22:46
  • 签到天数: 241 天

    [LV.8]以坛为家I

    0

    主题

    363

    帖子

    2983

    积分

    注册会员

    Rank: 2

    威望
    110
    金币
    2400
    贡献
    0
    警告
    0
    注册时间
    2016-4-27
    最后登录
    2017-1-18
    在线时间
    155 小时
    积分
    2983
    发表于 2016-7-20 09:00:42 | 显示全部楼层
    下载欣赏了,谢谢!
    回复 支持 反对

    使用道具 举报

  • TA的每日心情
    开心
    2016-11-10 10:47
  • 签到天数: 171 天

    [LV.7]常住居民III

    0

    主题

    629

    帖子

    3070

    积分

    注册会员

    Rank: 2

    威望
    118
    金币
    2233
    贡献
    -28
    警告
    0
    注册时间
    2016-4-19
    最后登录
    2017-1-19
    在线时间
    115 小时
    积分
    3070
    发表于 2016-7-20 10:36:03 | 显示全部楼层
    听过她的歌曲。
    回复 支持 反对

    使用道具 举报

  • TA的每日心情
    开心
    2016-6-28 16:15
  • 签到天数: 1 天

    [LV.1]初来乍到

    0

    主题

    264

    帖子

    1883

    积分

    注册会员

    Rank: 2

    威望
    253
    金币
    1113
    贡献
    0
    警告
    0
    注册时间
    2016-4-23
    最后登录
    2017-1-16
    在线时间
    38 小时
    积分
    1883
    发表于 2016-7-20 11:50:36 | 显示全部楼层
    喜欢的组曲。谢谢分享!
    回复 支持 反对

    使用道具 举报

    您需要登录后才可以回帖 登录 | 立即注册

    本版积分规则

    关闭

    站长推荐上一条 /1 下一条

    Archiver|手机版|小黑屋|数字音乐论坛 ( 津ICP备09009336号-1我要啦免费统计

    GMT+8, 2017-1-19 18:45 , Processed in 0.223891 second(s), 38 queries .

    Powered by Discuz! X3.2

    © 2008-2016 Comsenz Inc.|Style by 数字音乐论坛

    快速回复 返回顶部 返回列表