开启辅助访问 收藏本站

数字音乐论坛

 找回密码
 立即注册
快捷导航
查看: 747|回复: 8

[参赛作品] 罗天婵 克拉玛依之歌[1999年广州新时代CD][WAV整轨/370MB/百度]

[复制链接] TA的其它主题
  • TA的每日心情
    奋斗
    2020-7-28 10:18
  • 签到天数: 24 天

    [LV.4]偶尔看看III

    升级   2.43%

    9

    主题

    550

    帖子

    3097

    积分

    中级会员

    Rank: 3Rank: 3

    积分
    3097
    威望
    363
    金币
    1767
    贡献
    54
    发表于 2019-10-5 14:11:10 | 显示全部楼层 |阅读模式
    本帖最后由 1818188 于 2019-10-5 14:21 编辑

    广州新时代出版发行


    1999年


    曲目
    01.克拉玛依之歌
    02.摇篮曲
    03.打起手鼓唱起歌
    04.胡茄十八拍
    05.思乡曲             电影《海外赤子》插曲
    06.孤独的牧羊人        美国电影《音乐之声》插曲   
    07.哆来咪
    08.橄榄树             台湾电影《欢颜》主题曲  
    09.幽兰
    10.春光好
    11.雪莲花
    12.春天和秋天
    13.送你一首小诗
    14.红莓花开
    15.暮春
    16.祖国之恋           电影《海外赤子》插曲     

    罗天婵1a.jpg
    碟图1.jpg
    罗天婵3a.jpg

    抓轨文件不放进压缩包,就贴在这了。

    Exact Audio Copy V1.3 from 2. September 2016

    EAC 抓取日志文件从3. 一月 2018, 8:53

    罗天婵 / 克拉玛依之歌

    使用驱动器  :ATAPI   iHDS118   8   Adapter: 1  ID: 0

    读取模式      : 可靠Secure
    使用精确流     : 是
    清空音频缓存    : 否
    使用 C2 指示器 : 否

    读取偏移校正:               : 6
    读取 Lead-In 和 Lead-Out : 否
    用静音填充抓取中丢失偏移的采样       : 是
    去除首尾静音块               : 否
    在CRC 计算中使用了空样本       : 是
    已用接口                  : Win NT 及 2000 本地 Win32 接口

    所用输出模式: : 内部 WAV 函数
    样本格式    : 44.100 Hz; 16 Bit; 立体声


    已抓取 CD 的 TOC

         音轨 |    起始    |    长度    |  起始扇区  |  结束扇区  
        --------------------------------------------
          1 |  0:00.00 |  3:42.51 |      0 |  16700
          2 |  3:42.51 |  3:10.66 |  16701 |  31016
          3 |  6:53.42 |  2:11.36 |  31017 |  40877
          4 |  9:05.03 |  8:01.01 |  40878 |  76953
          5 | 17:06.04 |  3:23.67 |  76954 |  92245
          6 | 20:29.71 |  3:20.66 |  92246 | 107311
          7 | 23:50.62 |  2:33.21 | 107312 | 118807
          8 | 26:24.08 |  3:08.21 | 118808 | 132928
          9 | 29:32.29 |  3:44.23 | 132929 | 149751
         10 | 33:16.52 |  1:41.32 | 149752 | 157358
         11 | 34:58.09 |  3:02.17 | 157359 | 171025
         12 | 38:00.26 |  2:05.16 | 171026 | 180416
         13 | 40:05.42 |  3:30.17 | 180417 | 196183
         14 | 43:35.59 |  2:36.27 | 196184 | 207910
         15 | 46:12.11 |  7:01.14 | 207911 | 239499
         16 | 53:13.25 |  2:34.63 | 239500 | 251112


    范围状态及错误

    已选择范围

         文件名 D:\罗天婵 - 克拉玛依之歌.wav

         峰值电平 87.9 %
         抓取速度 12.3 X
         范围质量 100.0 %
         复制 CRC 0740845F
         复制成功

    没有错误发生


    AccurateRip 摘要

    音轨  1  在数据库中不存在
    音轨  2  在数据库中不存在
    音轨  3  在数据库中不存在
    音轨  4  在数据库中不存在
    音轨  5  在数据库中不存在
    音轨  6  在数据库中不存在
    音轨  7  在数据库中不存在
    音轨  8  在数据库中不存在
    音轨  9  在数据库中不存在
    音轨 10  在数据库中不存在
    音轨 11  在数据库中不存在
    音轨 12  在数据库中不存在
    音轨 13  在数据库中不存在
    音轨 14  在数据库中不存在
    音轨 15  在数据库中不存在
    音轨 16  在数据库中不存在

    没有任何音轨在 AccurateRip 数据库中有记录

    状态报告结尾

    ---- CUETools DB Plugin V2.1.6

    [CTDB TOCID: JUvzvMwWXxuDWRDNVbhbfE22Vy0-] database access error: 无法解析此远程名称: 'db.cuetools.net'   

    下载
    游客,如果您要查看本帖隐藏内容请回复


    罗天婵解压密码.rar (86 Bytes, 下载次数: 12, 售价: 15 金币)

    评分

    参与人数 1威望 +8 金币 +16 贡献 +8 收起 理由
    四季歌 + 8 + 16 + 8 字字珠玑

    查看全部评分

    回复

    使用道具 举报

  • TA的每日心情
    开心
    昨天 21:27
  • 签到天数: 124 天

    [LV.7]常住居民III

    升级   0%

    59

    主题

    1900

    帖子

    1万

    积分

    论坛元老

    Rank: 8Rank: 8

    积分
    11523
    威望
    2020
    金币
    4997
    贡献
    581

    发帖高手勋章

    发表于 2019-10-5 15:28:30 | 显示全部楼层
    难得一见的专辑,而且还是原抓,下载收藏啦!
    回复

    使用道具 举报

  • TA的每日心情
    郁闷
    3 小时前
  • 签到天数: 136 天

    [LV.7]常住居民III

    升级   59.68%

    2

    主题

    1178

    帖子

    5387

    积分

    中级会员

    Rank: 3Rank: 3

    积分
    5387
    威望
    350
    金币
    3492
    贡献
    17

    VIP年费会员勋章

    发表于 2019-10-6 20:38:04 | 显示全部楼层
    老歌唱家的专辑。值得收藏1
    回复

    使用道具 举报

  • TA的每日心情

    2020-6-26 11:58
  • 签到天数: 87 天

    [LV.6]常住居民II

    升级   100%

    3

    主题

    1349

    帖子

    2456

    积分

    禁止访问

    积分
    2456
    威望
    480
    金币
    155
    贡献
    -8
    发表于 2019-10-8 10:14:37 | 显示全部楼层
    提示: 作者被禁止或删除 内容自动屏蔽
    回复

    使用道具 举报

  • TA的每日心情
    郁闷
    4 天前
  • 签到天数: 101 天

    [LV.6]常住居民II

    升级   33.35%

    3

    主题

    1955

    帖子

    4334

    积分

    中级会员

    Rank: 3Rank: 3

    积分
    4334
    威望
    1117
    金币
    137
    贡献
    8
    发表于 2019-10-14 15:04:39 | 显示全部楼层
    罗天婵的歌听的不多,老歌唱家,还是从电影《海外赤子》中的作品中知道的她。
    回复

    使用道具 举报

  • TA的每日心情

    昨天 03:53
  • 签到天数: 73 天

    [LV.6]常住居民II

    升级   8%

    12

    主题

    986

    帖子

    2080

    积分

    注册会员

    Rank: 2

    积分
    2080
    威望
    482
    金币
    127
    贡献
    3
    发表于 2019-10-17 18:20:29 | 显示全部楼层
    我父母辈所听的歌曲。
    回复

    使用道具 举报

    该用户从未签到

    升级   100%

    1

    主题

    400

    帖子

    1478

    积分

    禁止访问

    积分
    1478
    威望
    537
    金币
    4
    贡献
    0
    发表于 2019-10-17 20:35:14 | 显示全部楼层
    提示: 作者被禁止或删除 内容自动屏蔽
    回复

    使用道具 举报

  • TA的每日心情
    奋斗
    2020-7-27 18:07
  • 签到天数: 121 天

    [LV.7]常住居民III

    升级   0%

    86

    主题

    2002

    帖子

    1万

    积分

    论坛元老

    Rank: 8Rank: 8

    积分
    15239
    威望
    3032
    金币
    6627
    贡献
    546

    发帖高手勋章

    发表于 2020-2-20 18:36:44 | 显示全部楼层
    听听中音歌唱家罗天婵克拉玛依之歌,谢谢分享!
    回复

    使用道具 举报

  • TA的每日心情
    擦汗
    昨天 23:02
  • 签到天数: 35 天

    [LV.5]常住居民I

    升级   63.65%

    1

    主题

    806

    帖子

    1273

    积分

    新手上路

    Rank: 1

    积分
    1273
    威望
    155
    金币
    157
    贡献
    0
    发表于 2020-4-15 10:10:47 | 显示全部楼层
    经典耐听的女中音歌唱家,特别喜欢她的歌曲
    回复

    使用道具 举报

    您需要登录后才可以回帖 登录 | 立即注册

    本版积分规则

    Archiver|手机版|小黑屋|数字音乐论坛 ( 津ICP备09009336号-1 )

    GMT+8, 2020-8-5 12:59 , Processed in 0.421875 second(s), 40 queries .

    Powered by Discuz! X3.4 Licensed

    © 2008-2020 上网要文明 发言要理性 本站禁灌水

    快速回复 返回顶部 返回列表