开启辅助访问 天气预报 收藏本站

数字音乐论坛

 找回密码
 立即注册
快捷导航
楼主: 小雷1987

[我愿 孙美娜独唱歌曲][WAV/439MB][百度]免费

[复制链接] TA的其它主题

签到天数: 582 天

[LV.9]以坛为家II

12

主题

959

帖子

1万

积分

版主

Rank: 7Rank: 7Rank: 7

积分
10305
威望
652
金币
7876
贡献
156

贵宾专用勋章

发表于 2020-1-22 13:42:56 | 显示全部楼层
小雷 该发发男歌手的专辑了
回复

使用道具 举报

签到天数: 686 天

[LV.9]以坛为家II

1

主题

854

帖子

3300

积分

中级会员

Rank: 3Rank: 3

积分
3300
威望
166
金币
2114
贡献
0
发表于 2020-1-22 13:59:00 | 显示全部楼层
孙美娜没有大红过,歌曲也是翻唱港台的,现在听听别有一番味道,感谢分享
回复

使用道具 举报

签到天数: 594 天

[LV.9]以坛为家II

2

主题

976

帖子

2731

积分

注册会员

Rank: 2

积分
2731
威望
377
金币
1000
贡献
1
发表于 2020-1-22 14:21:01 | 显示全部楼层
歌手的名字不熟悉,可能是地域的的关系,我在北方不太熟悉。
回复

使用道具 举报

签到天数: 767 天

[LV.10]以坛为家III

85

主题

1941

帖子

1万

积分

贵宾

Rank: 5Rank: 5

积分
19345
威望
2446
金币
11838
贡献
659

贵宾专用勋章

发表于 2020-1-22 15:51:26 | 显示全部楼层
翻唱的都是耳熟能的歌曲,谢谢分享制作!
回复

使用道具 举报

签到天数: 369 天

[LV.9]以坛为家II

4

主题

671

帖子

1454

积分

新手上路

Rank: 1

积分
1454
威望
299
金币
185
贡献
0
发表于 2020-1-22 23:45:57 | 显示全部楼层
见到这个专辑,只能说自己孤陋寡闻了,没见过感谢分享
回复

使用道具 举报

签到天数: 520 天

[LV.9]以坛为家II

67

主题

1389

帖子

7037

积分

高级会员

Rank: 4

积分
7037
威望
2033
金币
960
贡献
607

发帖高手勋章

发表于 2020-1-24 08:24:24 | 显示全部楼层
感谢小雷磁带制作辛苦了
回复

使用道具 举报

签到天数: 755 天

[LV.10]以坛为家III

35

主题

3367

帖子

1万

积分

论坛元老

Rank: 8Rank: 8

积分
10674
威望
2463
金币
2273
贡献
108
发表于 2020-1-25 17:48:04 | 显示全部楼层
记得她好像是上海的歌手,感谢分享。
回复

使用道具 举报

签到天数: 419 天

[LV.9]以坛为家II

2

主题

947

帖子

2288

积分

注册会员

Rank: 2

积分
2288
威望
526
金币
285
贡献
4
发表于 2020-1-26 08:14:09 | 显示全部楼层
孙美娜的歌曲以翻唱为主,当时这样的歌手很多,所以显得不太出名。
回复

使用道具 举报

签到天数: 472 天

[LV.9]以坛为家II

14

主题

761

帖子

2172

积分

注册会员

Rank: 2

积分
2172
威望
501
金币
294
贡献
110
发表于 2020-1-26 16:00:18 | 显示全部楼层
不熟悉的歌手,出版的专辑不多,孙美娜上海奉贤籍歌唱家。毕业于上海师范大学艺术系声乐本科,曾师从于著名歌唱家朱逢博老师。上海通俗文艺研究会副会长、国家一级演员、上海师范大学音乐教授、著名歌唱家。培养了获得全国"中国星"大赛金奖的刘晓等一大批人才
回复

使用道具 举报

签到天数: 559 天

[LV.9]以坛为家II

32

主题

870

帖子

1万

积分

贵宾

Rank: 5Rank: 5

积分
11640
威望
897
金币
8652
贡献
299

发帖高手勋章

发表于 2020-1-27 19:02:09 | 显示全部楼层
本帖最后由 慧点 于 2020-1-27 20:39 编辑

杨子江音像的孙美娜专辑,不错的一位歌手, 谢谢小雷制作分享!
FILE "我愿 孙美娜独唱歌曲.wav" WAVE
  TRACK 01 AUDIO
    TITLE "夕阳下的沙滩"
    INDEX 01 00:00:00
  TRACK 02 AUDIO
    TITLE "不再摇头"
    INDEX 01 03:18:49
  TRACK 03 AUDIO
    TITLE "愿意"
    INDEX 01 06:22:41
  TRACK 04 AUDIO
    TITLE "玫瑰城"
    INDEX 01 10:27:59
  TRACK 05 AUDIO
    TITLE "遥想那段时光"
    INDEX 01 13:41:45
  TRACK 06 AUDIO
    TITLE "春风吻上我的脸"
    INDEX 01 16:23:03
  TRACK 07 AUDIO
    TITLE "我有一段情"
    INDEX 01 18:48:07
  TRACK 08 AUDIO
    TITLE "未来"
    INDEX 01 22:05:06
  TRACK 09 AUDIO
    TITLE "我愿"
    INDEX 01 25:13:16
  TRACK 10 AUDIO
    TITLE "燃烧"
    INDEX 01 27:25:08
  TRACK 11 AUDIO
    TITLE "八仙过海"
    INDEX 01 30:23:38
  TRACK 12 AUDIO
    TITLE "沙漠之足"
    INDEX 01 33:22:57
  TRACK 13 AUDIO
    TITLE "梦"
    INDEX 01 37:27:25
  TRACK 14 AUDIO
    TITLE "霓虹灯下"
    INDEX 01 40:41:23

点评

谢谢!  发表于 2020-2-11 14:31
回复

使用道具 举报

您需要登录后才可以回帖 登录 | 立即注册

本版积分规则

Title - Artist
0:00

    Archiver|手机版|小黑屋|数字音乐论坛 ( 津ICP备09009336号-1 )

    GMT+8, 2020-2-20 18:31 , Processed in 0.484375 second(s), 33 queries .

    Powered by Discuz! X3.4

    © 2008-2019 上网要文明 发言要理性 本站禁灌水

    快速回复 返回顶部 返回列表