开启辅助访问 天气预报 收藏本站

数字音乐论坛

 找回密码
 立即注册
快捷导航
12
返回列表 发新帖
楼主: 小雷1987

[谢采妘的歌 乔姗演唱][WAV/440MB][百度]免费

[复制链接] TA的其它主题

签到天数: 712 天

[LV.9]以坛为家II

3

主题

1766

帖子

4253

积分

中级会员

Rank: 3Rank: 3

积分
4253
威望
1054
金币
371
贡献
8
发表于 2020-1-24 13:14:19 | 显示全部楼层
乔姗的声音听着很舒服,谢谢制作分享
回复

使用道具 举报

签到天数: 755 天

[LV.10]以坛为家III

35

主题

3369

帖子

1万

积分

论坛元老

Rank: 8Rank: 8

积分
10686
威望
2465
金币
2279
贡献
108
发表于 2020-1-25 17:52:11 | 显示全部楼层
乔姗的歌很少见,感谢分享,新春快乐!
回复

使用道具 举报

签到天数: 451 天

[LV.9]以坛为家II

35

主题

718

帖子

7217

积分

高级会员

Rank: 4

积分
7217
威望
598
金币
5212
贡献
91

发帖高手勋章

QQ
发表于 2020-1-25 18:45:08 | 显示全部楼层
乔姗这个歌手不熟悉,不过太平洋出品的专辑一定错不了!
回复

使用道具 举报

签到天数: 32 天

[LV.5]常住居民I

21

主题

64

帖子

8367

积分

高级会员

Rank: 4

积分
8367
威望
413
金币
7173
贡献
294

发帖高手勋章

发表于 2020-1-25 21:42:27 | 显示全部楼层
经典歌曲值得分享。感谢上传
回复

使用道具 举报

签到天数: 559 天

[LV.9]以坛为家II

32

主题

870

帖子

1万

积分

贵宾

Rank: 5Rank: 5

积分
11640
威望
897
金币
8652
贡献
299

发帖高手勋章

发表于 2020-1-27 20:51:44 | 显示全部楼层
本帖最后由 慧点 于 2020-1-27 21:22 编辑

FILE "谢采妘的歌 乔姗演唱.wav" WAVE
  TRACK 01 AUDIO
    TITLE "谁的歌"
    INDEX 01 00:00:00
  TRACK 02 AUDIO
    TITLE "码头情歌"
    INDEX 01 03:57:19
  TRACK 03 AUDIO
    TITLE "是否可以"
    INDEX 01 06:41:51
  TRACK 04 AUDIO
    TITLE "在风中"
    INDEX 01 10:15:59
  TRACK 05 AUDIO
    TITLE "她的名字叫回忆"
    INDEX 01 14:58:45
  TRACK 06 AUDIO
    TITLE "OK!我爱你"
    INDEX 01 18:01:03
  TRACK 07 AUDIO
    TITLE "你最美丽你最亲"
    INDEX 01 21:41:57
  TRACK 08 AUDIO
    TITLE "情哥乖"
    INDEX 01 25:03:06
  TRACK 09 AUDIO
    TITLE "当掌声过后"
    INDEX 01 28:18:16
  TRACK 10 AUDIO
    TITLE "早来的游戏"
    INDEX 01 32:23:08
  TRACK 11 AUDIO
    TITLE "因为有你"
    INDEX 01 36:45:08
  TRACK 12 AUDIO
    TITLE "红尘恋"
    INDEX 01 40:18:50
回复

使用道具 举报

签到天数: 575 天

[LV.9]以坛为家II

1

主题

864

帖子

1685

积分

新手上路

Rank: 1

积分
1685
威望
289
金币
243
贡献
0
发表于 2020-1-28 15:03:42 | 显示全部楼层
试听曲很好听,太平洋影音公司出品的磁带质量都不错。谢谢分享!
回复

使用道具 举报

签到天数: 246 天

[LV.8]以坛为家I

50

主题

1135

帖子

8023

积分

高级会员

Rank: 4

积分
8023
威望
1487
金币
3577
贡献
337
发表于 2020-2-6 18:51:24 | 显示全部楼层
有它的姊妹带【OK】带。谢谢提供资源分享。
回复

使用道具 举报

签到天数: 159 天

[LV.7]常住居民III

29

主题

720

帖子

4874

积分

中级会员

Rank: 3Rank: 3

积分
4874
威望
957
金币
2029
贡献
211

发帖高手勋章

发表于 2020-2-7 14:47:38 | 显示全部楼层
当年的歌手,后来的古琴演奏家,感谢无私分享!!
回复

使用道具 举报

签到天数: 207 天

[LV.7]常住居民III

2

主题

603

帖子

1654

积分

贵宾

Rank: 5Rank: 5

积分
1654
威望
394
金币
263
贡献
0
发表于 2020-2-9 13:15:44 | 显示全部楼层
乔珊其实长得比谢彩云好看
回复

使用道具 举报

签到天数: 20 天

[LV.4]偶尔看看III

1

主题

401

帖子

1816

积分

新手上路

Rank: 1

积分
1816
威望
379
金币
657
贡献
0
发表于 前天 20:20 | 显示全部楼层
乔姗的声音非常好听,那个男声就不咋地了,有点不搭,呵呵,谢谢!
回复

使用道具 举报

您需要登录后才可以回帖 登录 | 立即注册

本版积分规则

Title - Artist
0:00

    Archiver|手机版|小黑屋|数字音乐论坛 ( 津ICP备09009336号-1 )

    GMT+8, 2020-2-20 18:57 , Processed in 0.421875 second(s), 30 queries .

    Powered by Discuz! X3.4

    © 2008-2019 上网要文明 发言要理性 本站禁灌水

    快速回复 返回顶部 返回列表