开启辅助访问 收藏本站

数字音乐论坛

 找回密码
 立即注册
快捷导航
查看: 133|回复: 4

[米线 梦回香巴拉(裸碟)][WAV+CUE 609/MB] 百度

[复制链接] TA的其它主题
  • TA的每日心情
    慵懒
    7 小时前
  • 签到天数: 73 天

    [LV.6]常住居民II

    82

    主题

    1896

    帖子

    1万

    积分

    论坛元老

    Rank: 8Rank: 8

    积分
    14535
    威望
    2931
    金币
    6241
    贡献
    536

    发帖高手勋章

    发表于 2020-3-30 21:53:55 | 显示全部楼层 |阅读模式
    本帖最后由 cl200511 于 2020-3-30 21:53 编辑

    [audio]
    [/audio]
    1.jpg


    IMG_20200314_130655.jpg

    封面来自网络


    专辑名称: 梦回香巴拉
    歌手: 米线
    发行时间: 2007年09月27日
    地区: 大陆
    语言: 普通话
    资源格式: WAV


    01 雅鲁藏布
    02 浪拉山情
    03 跨越世界的河流
    04 香巴拉并不遥远
    05 坐上火车去拉萨
    06 呼伦贝尔大草原
    07 望情天涯
    08 雅鲁藏布的情歌
    09 小河淌水
    10 天脉传奇
    11 山歌好比春江水
    12 大地飞歌
    13 月光落地的声音
    14 蓝色的蒙古高原


    游客,如果您要查看本帖隐藏内容请回复
    新建文本文档.rar (90 Bytes, 下载次数: 1, 售价: 8 金币)

    评分

    参与人数 1威望 +6 金币 +16 贡献 +6 收起 理由
    WSAN + 6 + 16 + 6

    查看全部评分

    回复

    使用道具 举报

  • TA的每日心情
    慵懒
    7 小时前
  • 签到天数: 73 天

    [LV.6]常住居民II

    82

    主题

    1896

    帖子

    1万

    积分

    论坛元老

    Rank: 8Rank: 8

    积分
    14535
    威望
    2931
    金币
    6241
    贡献
    536

    发帖高手勋章

     楼主| 发表于 2020-3-30 21:53:56 | 显示全部楼层
    Exact Audio Copy V1.2 from 12. August 2016

    EAC 抓取日志文件从30. 三月 2020, 20:53

    未知艺术家 / 未知标题

    使用驱动器  :TSSTcorpDVD+-RW SU-208FB   Adapter: 1  ID: 0

    读取模式      : 可靠Secure
    使用精确流     : 是
    清空音频缓存    : 是
    使用 C2 指示器 : 否

    读取偏移校正:               : 0
    读取 Lead-In 和 Lead-Out : 否
    用静音填充抓取中丢失偏移的采样       : 是
    去除首尾静音块               : 否
    在CRC 计算中使用了空样本       : 是
    已用接口                  : Win NT 及 2000 本地 Win32 接口

    所用输出模式: : 内部 WAV 函数
    样本格式    : 44.100 Hz; 16 Bit; 立体声


    已抓取 CD 的 TOC

         音轨 |    起始    |    长度    |  起始扇区  |  结束扇区  
        --------------------------------------------
          1 |  0:00.00 |  4:45.16 |      0 |  21390
          2 |  4:45.16 |  4:42.15 |  21391 |  42555
          3 |  9:27.31 |  5:13.55 |  42556 |  66085
          4 | 14:41.11 |  5:27.35 |  66086 |  90645
          5 | 20:08.46 |  3:56.00 |  90646 | 108345
          6 | 24:04.46 |  4:41.18 | 108346 | 129438
          7 | 28:45.64 |  3:10.26 | 129439 | 143714
          8 | 31:56.15 |  5:15.71 | 143715 | 167410
          9 | 37:12.11 |  4:05.02 | 167411 | 185787
         10 | 41:17.13 |  4:27.21 | 185788 | 205833
         11 | 45:44.34 |  3:35.68 | 205834 | 222026
         12 | 49:20.27 |  3:07.29 | 222027 | 236080
         13 | 52:27.56 |  3:39.35 | 236081 | 252540
         14 | 56:07.16 |  4:12.32 | 252541 | 271472


    范围状态及错误

    已选择范围

         文件名 D:\自抓\米线 梦回香巴拉\未知艺术家 - 未知标题.wav

         峰值电平 100.0 %
         抓取速度 4.4 X
         范围质量 100.0 %
         复制 CRC ED52C8A5
         复制成功

    没有错误发生

    状态报告结尾
    回复

    使用道具 举报

  • TA的每日心情
    慵懒
    10 小时前
  • 签到天数: 73 天

    [LV.6]常住居民II

    1

    主题

    963

    帖子

    5751

    积分

    中级会员

    Rank: 3Rank: 3

    积分
    5751
    威望
    769
    金币
    3250
    贡献
    0
    发表于 2020-3-31 22:44:58 手机频道 | 显示全部楼层
    坐沙发欣赏,谢谢楼主辛苦制作!
    回复

    使用道具 举报

  • TA的每日心情

    昨天 19:52
  • 签到天数: 70 天

    [LV.6]常住居民II

    1

    主题

    701

    帖子

    2137

    积分

    注册会员

    Rank: 2

    积分
    2137
    威望
    15
    金币
    1406
    贡献
    0
    发表于 2020-4-1 19:41:56 | 显示全部楼层
    米线早期的歌挺好听的,不知道后来的怎样。下来欣赏一下。谢谢楼主分享!
    回复

    使用道具 举报

  • TA的每日心情
    无聊
    12 小时前
  • 签到天数: 73 天

    [LV.6]常住居民II

    36

    主题

    4130

    帖子

    1万

    积分

    论坛元老

    Rank: 8Rank: 8

    积分
    12360
    威望
    3093
    金币
    1936
    贡献
    108
    发表于 2020-5-4 20:12:57 | 显示全部楼层
    前些年除了不少好听的藏歌,这些年好像没有什么好作品出现
    回复

    使用道具 举报

    您需要登录后才可以回帖 登录 | 立即注册

    本版积分规则

    Title - Artist
    0:00

      Archiver|手机版|小黑屋|数字音乐论坛 ( 津ICP备09009336号-1 )

      GMT+8, 2020-6-2 14:59 , Processed in 0.484375 second(s), 42 queries .

      Powered by Discuz! X3.4 Licensed

      © 2008-2020 上网要文明 发言要理性 本站禁灌水

      快速回复 返回顶部 返回列表