sunshine
开启辅助访问 天气与日历 收藏本站充币切换到宽版

数字音乐论坛

 找回密码
 立即注册
查看: 965|回复: 7

[原创][李逸-李逸第八集·日落日升][WAV/CUE/322M][百度网盘]

[复制链接] TA的其它主题
  • TA的每日心情

    2021-7-12 07:48
  • 签到天数: 169 天

    [LV.7]常住居民III

    升级   85.67%

    75

    主题

    496

    帖子

    9785

    积分

    金牌会员

    Rank: 5Rank: 5

    原创高手勋章

    鲜花(64) 鸡蛋(0)
    发表于 2021-3-17 19:23:16 | 显示全部楼层 |阅读模式
    1.jpg


    2.jpg


    3.jpg


    【专辑名称】李逸-李逸第八集·日落日升

    【发行公司】丽风唱片

    【唱片编号】LFCD8236

    【发行时间】1977/2015复刻

    【唱片语言】国语

    【资源格式】WAV+CUE

    【专辑曲目】

    01、谈情说爱

    02、爱你到永远

    03、年年此日再相见

    04、日落日升


    [audio]
    [/audio]


    05、我很想念你

    06、不要再犹疑

    07、爱的时光

    08、永远难忘记

    09、爱的路上我和你

    10、快回去

    11、世界多美丽


    [audio]
    [/audio]


    12、容易记起你


    游客,如果您要查看本帖隐藏内容请回复


    提取码.rar (89 Bytes, 下载次数: 5, 售价: 58 金币)


    Exact Audio Copy V1.6 from 23. October 2020

    EAC 抓取日志文件从17. 三月 2021, 18:39

    未知艺术家 / 未知标题

    使用驱动器  :PLDS    DVD-RW DS8A8SH   Adapter: 1  ID: 0

    读取模式      : 可靠Secure
    使用精确流     : 是
    清空音频缓存    : 否
    使用 C2 指示器 : 否

    读取偏移校正:               : 6
    读取 Lead-In 和 Lead-Out : 否
    用静音填充抓取中丢失偏移的采样       : 是
    去除首尾静音块               : 否
    在CRC 计算中使用了空样本       : 是
    已用接口                  : Win NT 及 2000 本地 Win32 接口

    所用输出模式: : 内部 WAV 函数
    样本格式    : 44.100 Hz; 16 Bit; 立体声


    已抓取 CD 的 TOC

         音轨 |    起始    |    长度    |  起始扇区  |  结束扇区  
        --------------------------------------------
          1 |  0:00.37 |  1:54.38 |     37 |   8624
          2 |  1:55.00 |  3:01.57 |   8625 |  22256
          3 |  4:56.57 |  2:13.04 |  22257 |  32235
          4 |  7:09.61 |  3:17.71 |  32236 |  47081
          5 | 10:27.57 |  2:21.64 |  47082 |  57720
          6 | 12:49.46 |  3:03.70 |  57721 |  71515
          7 | 15:53.41 |  2:07.26 |  71516 |  81066
          8 | 18:00.67 |  3:32.50 |  81067 |  97016
          9 | 21:33.42 |  3:04.36 |  97017 | 110852
         10 | 24:38.03 |  3:07.58 | 110853 | 124935
         11 | 27:45.61 |  2:16.39 | 124936 | 135174
         12 | 30:02.25 |  1:56.25 | 135175 | 143899


    范围状态及错误

    已选择范围

         文件名 F:\分享\未知艺术家 - 未知标题.wav

         峰值电平 100.0 %
         抓取速度 4.0 X
         范围质量 99.9 %
         复制 CRC 63CD2480
         复制成功

    没有错误发生

    状态报告结尾

    ---- CUETools DB Plugin V2.1.6

    [CTDB TOCID: ruu6kdZBkmHiBImPoKoIMprBb2g-] disk not present in database
    Submit result: ruu6kdZBkmHiBImPoKoIMprBb2g- has been uploaded



    评分

    参与人数 1威望 +8 金币 +16 贡献 +8 收起 理由
    WSAN + 8 + 16 + 8 很给力!

    查看全部评分

    鲜花鸡蛋

    WSAN  在2021-3-17 19:28  送朵鲜花  并说:送朵鲜花鼓励一下
    回复 鲜花(64) 鸡蛋(0)

    使用道具 举报

  • TA的每日心情
    奋斗
    昨天 08:27
  • 签到天数: 496 天

    [LV.9]以坛为家II

    升级   100%

    159

    主题

    3301

    帖子

    3万

    积分

    VIP

    Rank: 5Rank: 5

    贵宾勋章

    鲜花(29) 鸡蛋(0)
    发表于 2021-3-17 19:59:25 | 显示全部楼层
    李逸是新马著名的歌手,黄泰伦和姚乙出道时,都被称为“李逸第二”。
    回复 鲜花(29) 鸡蛋(0)

    使用道具 举报

  • TA的每日心情
    擦汗
    昨天 06:50
  • 签到天数: 467 天

    [LV.9]以坛为家II

    升级   5.87%

    1

    主题

    2177

    帖子

    8588

    积分

    金牌会员

    Rank: 5Rank: 5

    鲜花(0) 鸡蛋(0)
    发表于 2021-3-17 22:34:00 | 显示全部楼层
    大马歌王歌声柔情亲切,感谢楼主分享!
    回复 鲜花(0) 鸡蛋(0)

    使用道具 举报

  • TA的每日心情
    慵懒
    4 天前
  • 签到天数: 270 天

    [LV.8]以坛为家I

    升级   71.83%

    7

    主题

    1248

    帖子

    5873

    积分

    中级会员

    Rank: 3Rank: 3

    鲜花(0) 鸡蛋(0)
    发表于 2021-3-22 21:03:05 | 显示全部楼层
    来自大马的男歌星,感谢分享李逸的专辑!
    回复 鲜花(0) 鸡蛋(0)

    使用道具 举报

  • TA的每日心情
    擦汗
    昨天 07:16
  • 签到天数: 127 天

    [LV.7]常住居民III

    升级   83.85%

    1

    主题

    279

    帖子

    1677

    积分

    新手上路

    Rank: 1

    鲜花(3) 鸡蛋(0)
    发表于 2021-4-5 13:18:57 | 显示全部楼层
    李逸的唱片很难找,东南亚歌手,71年就出道早了,但80年就离开人世,所以留下的专辑比较少。感谢楼主的倾情奉献,这本专辑音质没得说,很珍贵。
    回复 鲜花(3) 鸡蛋(0)

    使用道具 举报

  • TA的每日心情
    奋斗
    2021-5-13 14:56
  • 签到天数: 13 天

    [LV.3]偶尔看看II

    升级   5%

    1

    主题

    45

    帖子

    100

    积分

    新手上路

    Rank: 1

    鲜花(0) 鸡蛋(0)
    发表于 2021-4-12 15:14:35 | 显示全部楼层
    李逸的唱功十分了的
    回复 鲜花(0) 鸡蛋(0)

    使用道具 举报

  • TA的每日心情
    慵懒
    8 小时前
  • 签到天数: 493 天

    [LV.9]以坛为家II

    升级   100%

    240

    主题

    2702

    帖子

    2万

    积分

    督察

    Rank: 8Rank: 8

    突出贡献优秀版主荣誉管理

    鲜花(17) 鸡蛋(0)
    发表于 2021-4-12 15:51:21 | 显示全部楼层
    xywy 发表于 2021-4-12 15:14
    李逸的唱功十分了的

    你也不嫌累,刚注册进来回帖就刷满主页,几个字还有错别字,”了的“啥意思??

    无标题.jpg








    看帖回帖,有礼有节;分享光荣,灌水可耻!
    回复 鲜花(17) 鸡蛋(0)

    使用道具 举报

  • TA的每日心情
    奋斗
    4 天前
  • 签到天数: 55 天

    [LV.5]常住居民I

    升级   18.4%

    1

    主题

    122

    帖子

    368

    积分

    新手上路

    Rank: 1

    鲜花(0) 鸡蛋(0)
    发表于 2021-5-12 20:41:03 | 显示全部楼层
    70年代﹐曾经风靡马来西亚的首席男歌星,他那感性,触人心炫的歌声,醉到了多少青年男女的心
    回复 鲜花(0) 鸡蛋(0)

    使用道具 举报

    您需要登录后才可以回帖 登录 | 立即注册

    本版积分规则

    快速回复 返回顶部 返回列表