请选择 进入手机版 | 继续访问电脑版
12
返回列表 发新帖
楼主: op123op

[未知演唱][追捕流浪者《世界电影歌曲精选》TP-APE+CUE][百度云][230MB]

[复制链接]

签到天数: 38 天

[LV.5]常住居民I

0

主题

168

帖子

482

积分

新手上路

Rank: 1

积分
482
威望
127
金币
60
贡献
0
发表于 2018-2-14 05:38:09 | 显示全部楼层
很喜欢的老电影,里面的插曲堪称经典。
回复

使用道具 举报

签到天数: 87 天

[LV.6]常住居民II

6

主题

136

帖子

1596

积分

新手上路

Rank: 1

积分
1596
威望
157
金币
1080
贡献
51
发表于 2018-2-14 08:54:47 | 显示全部楼层
流浪者是1953年拍的,有了年头了,这个磁带应该是原唱
回复

使用道具 举报

签到天数: 150 天

[LV.7]常住居民III

60

主题

715

帖子

5405

积分

中级会员

Rank: 3Rank: 3

积分
5405
威望
1610
金币
906
贡献
544

发帖高手勋章

发表于 2018-2-14 15:56:56 | 显示全部楼层
经典的影视歌曲制作辛苦了
回复

使用道具 举报

签到天数: 47 天

[LV.5]常住居民I

1

主题

81

帖子

259

积分

新手上路

Rank: 1

积分
259
威望
29
金币
120
贡献
0
发表于 2018-2-15 18:06:46 | 显示全部楼层
小时候看过的电影,听着非常亲切。
回复

使用道具 举报

签到天数: 108 天

[LV.6]常住居民II

2

主题

559

帖子

1573

积分

新手上路

Rank: 1

积分
1573
威望
438
金币
138
贡献
0
发表于 2018-2-16 11:20:50 | 显示全部楼层
都是经典外国电影插曲,带来的是童年时的回忆。
回复

使用道具 举报

签到天数: 153 天

[LV.7]常住居民III

24

主题

1552

帖子

4694

积分

中级会员

Rank: 3Rank: 3

积分
4694
威望
1259
金币
588
贡献
36
发表于 2018-2-16 13:06:04 | 显示全部楼层
都是经典译制片的主题曲,值得珍藏,可惜看着不像是正版
回复

使用道具 举报

签到天数: 47 天

[LV.5]常住居民I

1

主题

81

帖子

259

积分

新手上路

Rank: 1

积分
259
威望
29
金币
120
贡献
0
发表于 2018-2-16 20:09:29 | 显示全部楼层
下载的CUE文件打不开,正确的如下:
FILE "追捕流浪者《世界电影歌曲精选》.ape" WAVE
  TRACK 01 AUDIO
    INDEX 01 00:00:00
TITLE "A1 追捕"
  TRACK 02 AUDIO
    INDEX 01 02:52:41
TITLE "A2 人证"
  TRACK 03 AUDIO
    INDEX 01 07:15:24
TITLE "A3 绝唱"
  TRACK 04 AUDIO
    INDEX 01 10:17:70
TITLE "A4 兆治的酒馆"
  TRACK 05 AUDIO
    INDEX 01 14:07:08
TITLE "A5 佐罗"
  TRACK 06 AUDIO
    INDEX 01 15:39:24
TITLE "A6 逃往雅典那"
  TRACK 07 AUDIO
    INDEX 01 18:54:19
TITLE "B1 瓦尔特保卫萨拉热窝"
  TRACK 08 AUDIO
    INDEX 01 23:41:06
TITLE "B2 卡桑德拉大桥"
  TRACK 09 AUDIO
    INDEX 01 25:54:55
TITLE "B3 大篷车"
  TRACK 10 AUDIO
    INDEX 01 29:40:65
TITLE "B4 卖花姑娘"
  TRACK 11 AUDIO
    INDEX 01 33:05:22
TITLE "B5 丽达之歌"
  TRACK 12 AUDIO
    INDEX 01 36:06:35
TITLE "B6 流浪者"
回复

使用道具 举报

您需要登录后才可以回帖 登录 | 立即注册

本版积分规则

快速回复 返回顶部 返回列表