请选择 进入手机版 | 继续访问电脑版

数字音乐论坛

 找回密码
 立即注册
查看: 542|回复: 10

[原创] [金企鹅][效果音樂 01-超時空立体动向音效][WAV/589M][百度]

[复制链接]

签到天数: 184 天

[LV.7]常住居民III

108

主题

768

帖子

5488

积分

超级版主

Rank: 8Rank: 8

积分
5488
威望
1161
金币
2069
贡献
319

突出贡献优秀版主荣誉管理

发表于 2018-2-27 22:38:21 | 显示全部楼层 |阅读模式
1.jpg
2.jpg

专辑名称:效果音乐《西德慕尼黑军校校歌/双头鹰进行曲》
制作发行:金企鹅唱片音乐带有限公司制作/发行
专辑编号:GPC-9011



01 西德慕尼黑军校校歌
02 双头鹰进行曲

03 月夜的海边
04 驿马车
05 台北迎城皇
06 水车姑娘
07 星·另一种乡愁
08 谁人会了解
09 行船人纯情曲
10 期待再相会
11 我要做好子
12 飘/七发郎
13 你着忍耐
14 心事谁人知
15 一支小雨伞
16 行船的人
17 请你听我讲

CD.JPG

游客,如果您要查看本帖隐藏内容请回复



提取码.txt (4 Bytes, 下载次数: 11, 售价: 28 金币)

评分

已有 1 人评分威望 金币 贡献 收起 理由
教官 + 8 + 16 + 8

总评分: 威望 + 8 金币 + 16 贡献 + 8 查看全部评分

我新发布了帖子《张德兰 - 爱您不变》,快来围观吧!
回复

使用道具 举报

签到天数: 184 天

[LV.7]常住居民III

108

主题

768

帖子

5488

积分

超级版主

Rank: 8Rank: 8

积分
5488
威望
1161
金币
2069
贡献
319

突出贡献优秀版主荣誉管理

 楼主| 发表于 2018-2-27 22:38:33 | 显示全部楼层
Exact Audio Copy V0.99 prebeta 5 from 4. May 2009

EAC 抓取日志文件从27. 十二月 2014, 8:12

未知艺术家 / 未知标题

使用驱动器  :TSSTcorpCDDVDW TS-U633A   Adapter: 0  ID: 1

读取模式     : 保护
使用精确流   : 是
废除音频缓冲 : 是
使用 C2 指针 : 否

读取偏移校正                   : 0
读取 Lead-In 和 Lead-Out       : 否
用静音填充抓取中丢失偏移的采样 : 是
去除首尾静音块                 : 否
在 CRC 计算中使用了空样本      : 是
已用接口                       : Win NT 及 2000 本地 Win32 接口

所用输出格式 : 内部 WAV 函数
样本格式     : 44.100 Hz;16 Bit;立体声


被抓轨 CD 的 TOC

     音轨 |   开始   |   长度   | 起始扇区 | 结尾扇区
    --------------------------------------------------
       1  |  0:00.00 |  3:05.25 |       0  |   13899  
       2  |  3:05.25 |  3:59.72 |   13900  |   31896  
       3  |  7:05.22 |  3:30.23 |   31897  |   47669  
       4  | 10:35.45 |  3:35.22 |   47670  |   63816  
       5  | 14:10.67 |  3:19.70 |   63817  |   78811  
       6  | 17:30.62 |  3:45.13 |   78812  |   95699  
       7  | 21:16.00 |  3:46.47 |   95700  |  112696  
       8  | 25:02.47 |  3:32.03 |  112697  |  128599  
       9  | 28:34.50 |  3:08.37 |  128600  |  142736  
      10  | 31:43.12 |  3:43.55 |  142737  |  159516  
      11  | 35:26.67 |  3:27.58 |  159517  |  175099  
      12  | 38:54.50 |  3:02.55 |  175100  |  188804  
      13  | 41:57.30 |  2:59.15 |  188805  |  202244  
      14  | 44:56.45 |  3:25.67 |  202245  |  217686  
      15  | 48:22.37 |  3:00.00 |  217687  |  231186  
      16  | 51:22.37 |  3:32.00 |  231187  |  247086  
      17  | 54:54.37 |  3:29.50 |  247087  |  262811  


范围状态及错误

已选择范围

     文件名 D:\新建文件夹 (2)\未知艺术家 - 未知标题.wav


     峰值电平 96.7 %
     复制 CRC A5F853B1
     复制结束

没有错误发生

状态报告结尾
我新发布了帖子《张德兰 - 爱您不变》,快来围观吧!
回复

使用道具 举报

签到天数: 178 天

[LV.7]常住居民III

26

主题

1650

帖子

5070

积分

中级会员

Rank: 3Rank: 3

积分
5070
威望
1318
金币
748
贡献
36
发表于 2018-2-28 11:10:11 | 显示全部楼层
原来阿牛哥也有这套金企鹅效果音乐呀,试听很不错,怎么这一集的编曲不是刘清池大师哩
回复

使用道具 举报

签到天数: 184 天

[LV.7]常住居民III

108

主题

768

帖子

5488

积分

超级版主

Rank: 8Rank: 8

积分
5488
威望
1161
金币
2069
贡献
319

突出贡献优秀版主荣誉管理

 楼主| 发表于 2018-2-28 11:13:53 | 显示全部楼层
mm-8305 发表于 2018-2-28 11:10
原来阿牛哥也有这套金企鹅效果音乐呀,试听很不错,怎么这一集的编曲不是刘清池大师哩

这一套共21集!但不全是刘清池编曲的!
我新发布了帖子《张德兰 - 爱您不变》,快来围观吧!
回复

使用道具 举报

签到天数: 50 天

[LV.5]常住居民I

2

主题

121

帖子

687

积分

新手上路

Rank: 1

积分
687
威望
63
金币
440
贡献
0
发表于 2018-2-28 16:20:43 | 显示全部楼层
20几集的轻音乐专辑,功德无量!!
回复

使用道具 举报

签到天数: 92 天

[LV.6]常住居民II

26

主题

585

帖子

4399

积分

中级会员

Rank: 3Rank: 3

积分
4399
威望
822
金币
1987
贡献
183
发表于 2018-3-2 16:02:58 | 显示全部楼层
本帖最后由 苦人 于 2018-3-2 16:06 编辑

一共有二十一集,集齐真不容易。不知有希望吗?谢谢提供资源。 照片15-5.jpg
回复

使用道具 举报

签到天数: 161 天

[LV.7]常住居民III

1

主题

227

帖子

782

积分

新手上路

Rank: 1

积分
782
威望
65
金币
425
贡献
0
发表于 2018-4-4 06:24:06 | 显示全部楼层
这套金企鹅效果音乐非常耐听 期待收集 支持分享
回复

使用道具 举报

签到天数: 152 天

[LV.7]常住居民III

3

主题

244

帖子

463

积分

新手上路

Rank: 1

积分
463
威望
77
金币
65
贡献
0
发表于 2018-4-4 07:57:42 | 显示全部楼层
好听,昂扬向上的气势,谢谢分享!
回复

使用道具 举报

签到天数: 54 天

[LV.5]常住居民I

18

主题

201

帖子

1038

积分

新手上路

Rank: 1

积分
1038
威望
320
金币
135
贡献
62
发表于 2018-5-6 09:05:58 | 显示全部楼层
希望能集齐,我们都要努力,谢谢楼主辛苦了
回复

使用道具 举报

签到天数: 1 天

[LV.1]初来乍到

1

主题

5

帖子

-214

积分

禁止访问

积分
-214
威望
-57
金币
-45
贡献
-60
发表于 2018-5-9 07:19:50 | 显示全部楼层
提示: 作者被禁止或删除 内容自动屏蔽
回复

使用道具 举报

您需要登录后才可以回帖 登录 | 立即注册

本版积分规则

数字音乐论坛

Archiver|手机版|小黑屋|数字音乐论坛 ( 津ICP备09009336号-1 )

GMT+8, 2018-6-20 21:25 , Processed in 0.142816 second(s), 30 queries .

Powered by Discuz! X3.4

© 2008-2018 Comsenz Inc.|上网要文明 发言要理性 本站禁灌水

快速回复 返回顶部 返回列表