请选择 进入手机版 | 继续访问电脑版
查看: 198|回复: 9

[原创] 张平福 - 【华乐齐鸣迎新岁之丰收大庆日CD1】【WAV整轨454MB】(百度云)

[复制链接]

签到天数: 25 天

[LV.4]偶尔看看III

10

主题

50

帖子

2070

积分

注册会员

Rank: 2

积分
2070
威望
187
金币
1546
贡献
100
发表于 2018-2-28 16:17:31 | 显示全部楼层 |阅读模式
本帖最后由 WSAN 于 2018-2-28 17:48 编辑

祝论坛各位兄弟姐妹新年快乐
张平福封面.jpg


专辑名称:华乐齐鸣迎新岁之丰收大庆日CD1
专辑艺人:张平福编曲.制作.领导新时代乐队伴奏
出版时间:2016年
发行公司:南方唱片机构有限公司
发行国家:马来西亚


分享警告:人生就是戏原抓分享,本专辑声音已注册备案,请于下载后24小时内自行删除,喜欢本专辑请购买正版支持,如出现侵权事宜概与本人无关,版权方发现侵权事宜请与本人联系删除。


曲目:
01.大庆日
02.富贵花开迎新年+挂彩灯+新年颂+千万富翁你来当
03.金狮拜年
04.迎春花+新春好预兆+拜年+像歌友拜年
05.恭喜恭喜
06.祝福歌
07.新年歌儿大家唱
08.花鼓歌
09.春花齐放
10.恭喜你
11.喜气洋洋
12.招财进宝


试听曲:01.大庆日



张平福封底.jpg
张平福CD1.jpg



下载地址:
游客,如果您要查看本帖隐藏内容请回复



张平福 - 华乐齐鸣迎新岁之丰收大庆日CD1下载密码.rar (138 Bytes, 下载次数: 4, 售价: 30 金币)

评分

参与人数 1威望 +8 金币 +16 贡献 +8 收起 理由
zjhjr + 8 + 16 + 8 很给力!

查看全部评分

回复

使用道具 举报

签到天数: 120 天

[LV.7]常住居民III

21

主题

1434

帖子

4341

积分

中级会员

Rank: 3Rank: 3

积分
4341
威望
1200
金币
471
贡献
36
发表于 2018-2-28 16:45:49 | 显示全部楼层
张大师这张专辑现在听很应景,感谢分享!
回复

使用道具 举报

签到天数: 25 天

[LV.4]偶尔看看III

10

主题

50

帖子

2070

积分

注册会员

Rank: 2

积分
2070
威望
187
金币
1546
贡献
100
 楼主| 发表于 2018-2-28 18:04:58 | 显示全部楼层
Exact Audio Copy V1.3 from 2. September 2016

EAC 抓取日志文件从28. 二月 2018, 10:56

未知艺术家 / 未知标题

使用驱动器  :HL-DT-STDVDRAM GH24NSC0   Adapter: 1  ID: 0

读取模式      : 可靠Secure
使用精确流     : 是
清空音频缓存    : 否
使用 C2 指示器 : 否

组合读写偏移校正:             : 0
读取 Lead-In 和 Lead-Out : 否
用静音填充抓取中丢失偏移的采样       : 是
去除首尾静音块               : 否
在CRC 计算中使用了空样本       : 是
已用接口                  : Win NT 及 2000 本地 Win32 接口

所用输出模式: : 内部 WAV 函数
样本格式    : 44.100 Hz; 16 Bit; 立体声


已抓取 CD 的 TOC

     音轨 |    起始    |    长度    |  起始扇区  |  结束扇区  
    --------------------------------------------
      1 |  0:00.00 |  3:58.22 |      0 |  17871
      2 |  3:58.22 |  7:37.73 |  17872 |  52219
      3 | 11:36.20 |  3:13.38 |  52220 |  66732
      4 | 14:49.58 |  7:00.02 |  66733 |  98234
      5 | 21:49.60 |  3:21.53 |  98235 | 113362
      6 | 25:11.38 |  3:00.51 | 113363 | 126913
      7 | 28:12.14 |  3:08.14 | 126914 | 141027
      8 | 31:20.28 |  2:44.51 | 141028 | 153378
      9 | 34:05.04 |  2:25.35 | 153379 | 164288
     10 | 36:30.39 |  2:33.18 | 164289 | 175781
     11 | 39:03.57 |  2:51.14 | 175782 | 188620
     12 | 41:54.71 |  3:06.61 | 188621 | 202631


范围状态及错误

已选择范围

     文件名 C:\Users\Administrator\Desktop\张平福 - 华乐齐鸣迎新岁之丰收大庆日\未知艺术家 - 未知标题.wav

     峰值电平 100.0 %
     抓取速度 10.3 X
     范围质量 99.9 %
     复制 CRC 3E6094C7
     复制成功

没有错误发生

状态报告结尾

---- CUETools DB Plugin V2.1.6

[CTDB TOCID: 1_fDvN_GLCvjY6lbllV5LFky9vA-] disk not present in database
Submit result: 1_fDvN_GLCvjY6lbllV5LFky9vA- has been uploaded


------------------------------------------------------------

Exact Audio Copy V1.3 from 2. September 2016

EAC 抓取日志文件从28. 二月 2018, 10:56

未知艺术家 / 未知标题

使用驱动器  :HL-DT-STDVDRAM GH24NSC0   Adapter: 1  ID: 0

读取模式      : 可靠Secure
使用精确流     : 是
清空音频缓存    : 否
使用 C2 指示器 : 否

组合读写偏移校正:             : 0
读取 Lead-In 和 Lead-Out : 否
用静音填充抓取中丢失偏移的采样       : 是
去除首尾静音块               : 否
在CRC 计算中使用了空样本       : 是
已用接口                  : Win NT 及 2000 本地 Win32 接口

所用输出模式: : 内部 WAV 函数
样本格式    : 44.100 Hz; 16 Bit; 立体声


已抓取 CD 的 TOC

     音轨 |    起始    |    长度    |  起始扇区  |  结束扇区  
    --------------------------------------------
      1 |  0:00.00 |  3:58.22 |      0 |  17871
      2 |  3:58.22 |  7:37.73 |  17872 |  52219
      3 | 11:36.20 |  3:13.38 |  52220 |  66732
      4 | 14:49.58 |  7:00.02 |  66733 |  98234
      5 | 21:49.60 |  3:21.53 |  98235 | 113362
      6 | 25:11.38 |  3:00.51 | 113363 | 126913
      7 | 28:12.14 |  3:08.14 | 126914 | 141027
      8 | 31:20.28 |  2:44.51 | 141028 | 153378
      9 | 34:05.04 |  2:25.35 | 153379 | 164288
     10 | 36:30.39 |  2:33.18 | 164289 | 175781
     11 | 39:03.57 |  2:51.14 | 175782 | 188620
     12 | 41:54.71 |  3:06.61 | 188621 | 202631


范围状态及错误

已选择范围

     文件名 C:\Users\Administrator\Desktop\张平福 - 华乐齐鸣迎新岁之丰收大庆日\未知艺术家 - 未知标题.wav

     峰值电平 100.0 %
     抓取速度 10.3 X
     范围质量 99.9 %
     复制 CRC 3E6094C7
     复制成功

没有错误发生

状态报告结尾

---- CUETools DB Plugin V2.1.6

[CTDB TOCID: 1_fDvN_GLCvjY6lbllV5LFky9vA-] disk not present in database
Submit result: 1_fDvN_GLCvjY6lbllV5LFky9vA- has been uploaded
回复

使用道具 举报

签到天数: 61 天

[LV.6]常住居民II

18

主题

486

帖子

2780

积分

注册会员

Rank: 2

积分
2780
威望
638
金币
898
贡献
120
发表于 2018-2-28 18:22:09 | 显示全部楼层
谢谢提供最新专辑。喜庆的音乐。
回复

使用道具 举报

签到天数: 64 天

[LV.6]常住居民II

8

主题

375

帖子

1209

积分

新手上路

Rank: 1

积分
1209
威望
358
金币
93
贡献
25
发表于 2018-2-28 23:16:21 | 显示全部楼层
东南亚过年歌曲就是比中国的好听多了,反而还多了一份弄弄的华人传统味道,中国的都是明显的红歌味道。
回复

使用道具 举报

签到天数: 113 天

[LV.6]常住居民II

1

主题

199

帖子

1021

积分

新手上路

Rank: 1

积分
1021
威望
78
金币
666
贡献
0
发表于 2018-3-1 00:08:51 | 显示全部楼层
感谢分享!很欢乐喜庆又应景的音乐
回复

使用道具 举报

签到天数: 13 天

[LV.3]偶尔看看II

1

主题

92

帖子

337

积分

禁止访问

积分
337
威望
77
金币
91
贡献
0
发表于 2018-3-1 05:23:12 | 显示全部楼层
提示: 作者被禁止或删除 内容自动屏蔽
回复

使用道具 举报

签到天数: 51 天

[LV.5]常住居民I

2

主题

158

帖子

423

积分

新手上路

Rank: 1

积分
423
威望
106
金币
53
贡献
0
发表于 2018-3-1 19:02:49 | 显示全部楼层
歌曲開場鑼鼓喧天,挺喜慶的專輯,謝謝分享
回复

使用道具 举报

签到天数: 105 天

[LV.6]常住居民II

1

主题

154

帖子

566

积分

新手上路

Rank: 1

积分
566
威望
47
金币
318
贡献
0
发表于 7 天前 | 显示全部楼层
华人传统味道,感谢分享!
回复

使用道具 举报

签到天数: 103 天

[LV.6]常住居民II

3

主题

184

帖子

350

积分

新手上路

Rank: 1

积分
350
威望
67
金币
32
贡献
0
发表于 7 天前 | 显示全部楼层
值得收藏的音乐啊,谢谢大大的分享
回复

使用道具 举报

您需要登录后才可以回帖 登录 | 立即注册

本版积分规则

快速回复 返回顶部 返回列表