请选择 进入手机版 | 继续访问电脑版
查看: 180|回复: 7

[原创] 张平福 - 【华乐齐鸣迎新岁之丰收大庆日CD2】【WAV整轨544MB】(百度云)

[复制链接]

签到天数: 24 天

[LV.4]偶尔看看III

10

主题

49

帖子

2051

积分

注册会员

Rank: 2

积分
2051
威望
187
金币
1528
贡献
100
发表于 2018-2-28 17:56:29 | 显示全部楼层 |阅读模式
本帖最后由 WSAN 于 2018-2-28 18:32 编辑

祝论坛兄弟姐妹春节快乐!!!
张平福封面.jpg

专辑名称:华乐齐鸣迎新岁之丰收大庆日CD2
专辑艺人:张平福编曲.制作.领导新时代乐队伴奏
出版时间:2016年
发行公司:南方唱片机构有限公司
发行国家:马来西亚

分享警告:人生就是戏原抓分享,本专辑声音已注册备案,请于下载后24小时内自行删除,喜欢本专辑请购买正版支持,如出现侵权事宜概与本人无关,版权方发现侵权事宜请与本人联系删除。

曲目列表:
01.大丰收
02.年年快乐似神仙
03.人人笑颜开+恭喜大家新年好+喜年来+新年到新年好
04.好幸福
05.庆团圆+新年皆大欢喜+大肥年+快乐新年
06.大地回春
07.大家恭喜
08.大发财
09.财源滚滚
10.拜年
11.年年岁岁乐安康
12.新年来


张平福封底.jpg
张平福CD2.jpg
试听曲:10.拜年


下载地址:
游客,如果您要查看本帖隐藏内容请回复


张平福 - 华乐齐鸣迎新岁之丰收大庆日CD2下载密码.rar (138 Bytes, 下载次数: 8, 售价: 30 金币)

评分

参与人数 1威望 +8 金币 +16 贡献 +8 收起 理由
zjhjr + 8 + 16 + 8 很给力!

查看全部评分

回复

使用道具 举报

签到天数: 24 天

[LV.4]偶尔看看III

10

主题

49

帖子

2051

积分

注册会员

Rank: 2

积分
2051
威望
187
金币
1528
贡献
100
 楼主| 发表于 2018-2-28 18:04:01 | 显示全部楼层
Exact Audio Copy V1.3 from 2. September 2016

EAC 抓取日志文件从28. 二月 2018, 11:20

未知艺术家 / 未知标题

使用驱动器  :HL-DT-STDVDRAM GH24NSC0   Adapter: 1  ID: 0

读取模式      : 可靠Secure
使用精确流     : 是
清空音频缓存    : 否
使用 C2 指示器 : 否

组合读写偏移校正:             : 0
读取 Lead-In 和 Lead-Out : 否
用静音填充抓取中丢失偏移的采样       : 是
去除首尾静音块               : 否
在CRC 计算中使用了空样本       : 是
已用接口                  : Win NT 及 2000 本地 Win32 接口

所用输出模式: : 内部 WAV 函数
样本格式    : 44.100 Hz; 16 Bit; 立体声


已抓取 CD 的 TOC

     音轨 |    起始    |    长度    |  起始扇区  |  结束扇区  
    --------------------------------------------
      1 |  0:00.00 |  5:08.17 |      0 |  23116
      2 |  5:08.17 |  3:13.69 |  23117 |  37660
      3 |  8:22.11 |  9:01.67 |  37661 |  78302
      4 | 17:24.03 |  3:23.30 |  78303 |  93557
      5 | 20:47.33 |  9:46.69 |  93558 | 137576
      6 | 30:34.27 |  3:10.18 | 137577 | 151844
      7 | 33:44.45 |  3:05.29 | 151845 | 165748
      8 | 36:49.74 |  3:11.20 | 165749 | 180093
      9 | 40:01.19 |  3:30.37 | 180094 | 195880
     10 | 43:31.56 |  3:21.19 | 195881 | 210974
     11 | 46:53.00 |  3:00.56 | 210975 | 224530
     12 | 49:53.56 |  4:00.03 | 224531 | 242533


范围状态及错误

已选择范围

     文件名 C:\Users\Administrator\Desktop\张平福 - 华乐齐鸣迎新岁之丰收大庆日\cd2\未知艺术家 - 未知标题.wav

     峰值电平 98.8 %
     抓取速度 10.9 X
     范围质量 100.0 %
     复制 CRC 8E5BE4D9
     复制成功

没有错误发生

状态报告结尾

---- CUETools DB Plugin V2.1.6

[CTDB TOCID: LHQgoBS7leD7U.bBQ_nal9HP8Z8-] disk not present in database
Submit result: LHQgoBS7leD7U.bBQ_nal9HP8Z8- has been uploaded


------------------------------------------------------------

Exact Audio Copy V1.3 from 2. September 2016

EAC 抓取日志文件从28. 二月 2018, 11:20

未知艺术家 / 未知标题

使用驱动器  :HL-DT-STDVDRAM GH24NSC0   Adapter: 1  ID: 0

读取模式      : 可靠Secure
使用精确流     : 是
清空音频缓存    : 否
使用 C2 指示器 : 否

组合读写偏移校正:             : 0
读取 Lead-In 和 Lead-Out : 否
用静音填充抓取中丢失偏移的采样       : 是
去除首尾静音块               : 否
在CRC 计算中使用了空样本       : 是
已用接口                  : Win NT 及 2000 本地 Win32 接口

所用输出模式: : 内部 WAV 函数
样本格式    : 44.100 Hz; 16 Bit; 立体声


已抓取 CD 的 TOC

     音轨 |    起始    |    长度    |  起始扇区  |  结束扇区  
    --------------------------------------------
      1 |  0:00.00 |  5:08.17 |      0 |  23116
      2 |  5:08.17 |  3:13.69 |  23117 |  37660
      3 |  8:22.11 |  9:01.67 |  37661 |  78302
      4 | 17:24.03 |  3:23.30 |  78303 |  93557
      5 | 20:47.33 |  9:46.69 |  93558 | 137576
      6 | 30:34.27 |  3:10.18 | 137577 | 151844
      7 | 33:44.45 |  3:05.29 | 151845 | 165748
      8 | 36:49.74 |  3:11.20 | 165749 | 180093
      9 | 40:01.19 |  3:30.37 | 180094 | 195880
     10 | 43:31.56 |  3:21.19 | 195881 | 210974
     11 | 46:53.00 |  3:00.56 | 210975 | 224530
     12 | 49:53.56 |  4:00.03 | 224531 | 242533


范围状态及错误

已选择范围

     文件名 C:\Users\Administrator\Desktop\张平福 - 华乐齐鸣迎新岁之丰收大庆日\cd2\未知艺术家 - 未知标题.wav

     峰值电平 98.8 %
     抓取速度 10.9 X
     范围质量 100.0 %
     复制 CRC 8E5BE4D9
     复制成功

没有错误发生

状态报告结尾

---- CUETools DB Plugin V2.1.6

[CTDB TOCID: LHQgoBS7leD7U.bBQ_nal9HP8Z8-] disk not present in database
Submit result: LHQgoBS7leD7U.bBQ_nal9HP8Z8- has been uploaded
回复

使用道具 举报

签到天数: 59 天

[LV.5]常住居民I

18

主题

474

帖子

2752

积分

注册会员

Rank: 2

积分
2752
威望
628
金币
902
贡献
120
发表于 2018-2-28 18:23:31 | 显示全部楼层
继续欣赏第二集。
回复

使用道具 举报

签到天数: 63 天

[LV.6]常住居民II

8

主题

374

帖子

1206

积分

新手上路

Rank: 1

积分
1206
威望
358
金币
91
贡献
25
发表于 2018-2-28 23:13:32 | 显示全部楼层
张平福是海外华人里东南亚最杰出的华语流行音乐编曲大师,没有之一。
回复

使用道具 举报

签到天数: 110 天

[LV.6]常住居民II

1

主题

196

帖子

1012

积分

新手上路

Rank: 1

积分
1012
威望
78
金币
660
贡献
0
发表于 2018-3-1 00:09:58 | 显示全部楼层
张平福出版的各类音乐系列还是挺多的,感谢分享
回复

使用道具 举报

签到天数: 13 天

[LV.3]偶尔看看II

1

主题

92

帖子

337

积分

禁止访问

积分
337
威望
77
金币
91
贡献
0
发表于 2018-3-1 05:25:42 | 显示全部楼层
提示: 作者被禁止或删除 内容自动屏蔽
回复

使用道具 举报

签到天数: 51 天

[LV.5]常住居民I

2

主题

158

帖子

423

积分

新手上路

Rank: 1

积分
423
威望
106
金币
53
贡献
0
发表于 2018-3-1 19:25:09 | 显示全部楼层
張平福無論是作曲還是編曲都是樣樣拿手,大馬不少歌手的專輯都是張平福參與制作的
回复

使用道具 举报

签到天数: 100 天

[LV.6]常住居民II

3

主题

180

帖子

337

积分

新手上路

Rank: 1

积分
337
威望
66
金币
25
贡献
0
发表于 4 天前 | 显示全部楼层
大师级的作品,必备收藏的音乐,谢谢分享
回复

使用道具 举报

您需要登录后才可以回帖 登录 | 立即注册

本版积分规则

快速回复 返回顶部 返回列表