开启辅助访问 收藏本站

数字音乐论坛

 找回密码
 立即注册
查看: 816|回复: 14

[原创] [张平福 - 新春好日子(2CD)][WAV/1.035G][百度]

[复制链接]

签到天数: 139 天

[LV.7]常住居民III

445

主题

594

帖子

6万

积分

管理员

Rank: 9Rank: 9Rank: 9

积分
67739
威望
7514
金币
48007
贡献
3755

斑竹专用勋章

发表于 2018-3-12 20:59:46 | 显示全部楼层 |阅读模式
本帖最后由 WSAN 于 2018-3-12 21:33 编辑

IMG_4452.JPG

专辑名称:新春好日子
编曲制作:张平福
制作公司:南方唱片机构有限公司(马来西亚)
唱片编号:NSR-52393-2 NSR-52394-2
发行时间:2011年
资源类型:WAV+CUE

磁盘一
01好日子
02喜庆莲莲
03拜年
04送你三千万
05好运来
06祥祥都吉祥
07万年红
08万声祝福
09幸福万年长
10五福财神跟着你
11共度好时光
12小拜年
13喜洋洋
14歌唱幸福年

磁盘二
01红封包
02万事都吉祥
03欢乐新年
04新年颂
05欢乐歌声满人间
06歌唱幸福年(印刷错,应为“南泥湾”)

07招财进宝
08欢乐年年到永远
09快乐的新年
10贺新春
11石油红包
12春来了
13齐唱新年好
14欢乐新春
15春天带来了温暖
16向歌友们拜年
游客,如果您要查看本帖隐藏内容请回复

IMG_4453_旋转.JPG
IMG_4454.JPG
IMG_4455.JPG
Exact Audio Copy V1.3 from 2. September 2016
EAC 抓取日志文件从12. 三月 2018, 19:27
张平福 / 新春好日子(1)
使用驱动器  :PIONEER DVD-RW  DVR-XT11   Adapter: 0  ID: 0
读取模式      : 可靠Secure
使用精确流     : 是
清空音频缓存    : 是
使用 C2 指示器 : 否
读取偏移校正:               : 6
读取 Lead-In 和 Lead-Out : 否
用静音填充抓取中丢失偏移的采样       : 是
去除首尾静音块               : 否
在CRC 计算中使用了空样本       : 是
已用接口                  : 已安装外部 ASPI 接口
所用输出模式: : 内部 WAV 函数
样本格式    : 44.100 Hz; 16 Bit; 立体声

已抓取 CD 的 TOC
     音轨 |    起始    |    长度    |  起始扇区  |  结束扇区  
    --------------------------------------------
      1 |  0:00.00 |  2:42.18 |      0 |  12167
      2 |  2:42.18 |  3:53.58 |  12168 |  29700
      3 |  6:36.01 |  3:18.37 |  29701 |  44587
      4 |  9:54.38 |  3:28.56 |  44588 |  60243
      5 | 13:23.19 |  3:29.16 |  60244 |  75934
      6 | 16:52.35 |  4:09.62 |  75935 |  94671
      7 | 21:02.22 |  2:55.26 |  94672 | 107822
      8 | 23:57.48 |  3:17.23 | 107823 | 122620
      9 | 27:14.71 |  4:16.28 | 122621 | 141848
     10 | 31:31.24 |  3:13.72 | 141849 | 156395
     11 | 34:45.21 |  3:27.00 | 156396 | 171920
     12 | 38:12.21 |  2:49.70 | 171921 | 184665
     13 | 41:02.16 |  3:46.06 | 184666 | 201621
     14 | 44:48.22 |  2:49.50 | 201622 | 214346

范围状态及错误
已选择范围
     文件名 C:\Users\hp\Desktop\zjhjr\张平福\张平福 - 新春好日子(1).wav
     峰值电平 98.8 %
     抓取速度 2.0 X
     范围质量 100.0 %
     复制 CRC EC91FCE0
     复制成功
没有错误发生

AccurateRip 摘要

音轨  1  在数据库中不存在
音轨  2  在数据库中不存在
音轨  3  在数据库中不存在
音轨  4  在数据库中不存在
音轨  5  在数据库中不存在
音轨  6  在数据库中不存在
音轨  7  在数据库中不存在
音轨  8  在数据库中不存在
音轨  9  在数据库中不存在
音轨 10  在数据库中不存在
音轨 11  在数据库中不存在
音轨 12  在数据库中不存在
音轨 13  在数据库中不存在
音轨 14  在数据库中不存在

Exact Audio Copy V1.3 from 2. September 2016
EAC 抓取日志文件从12. 三月 2018, 20:00
张平福 / 新春好日子(2)
使用驱动器  :PIONEER DVD-RW  DVR-XT11   Adapter: 0  ID: 0
读取模式      : 可靠Secure
使用精确流     : 是
清空音频缓存    : 是
使用 C2 指示器 : 否
读取偏移校正:               : 6
读取 Lead-In 和 Lead-Out : 否
用静音填充抓取中丢失偏移的采样       : 是
去除首尾静音块               : 否
在CRC 计算中使用了空样本       : 是
已用接口                  : 已安装外部 ASPI 接口
所用输出模式: : 内部 WAV 函数
样本格式    : 44.100 Hz; 16 Bit; 立体声

已抓取 CD 的 TOC
     音轨 |    起始    |    长度    |  起始扇区  |  结束扇区  
    --------------------------------------------
      1 |  0:00.00 |  3:28.68 |      0 |  15667
      2 |  3:28.68 |  3:07.15 |  15668 |  29707
      3 |  6:36.08 |  2:54.52 |  29708 |  42809
      4 |  9:30.60 |  3:13.24 |  42810 |  57308
      5 | 12:44.09 |  3:33.07 |  57309 |  73290
      6 | 16:17.16 |  3:35.41 |  73291 |  89456
      7 | 19:52.57 |  3:22.16 |  89457 | 104622
      8 | 23:14.73 |  4:13.09 | 104623 | 123606
      9 | 27:28.07 |  3:16.18 | 123607 | 138324
     10 | 30:44.25 |  3:18.67 | 138325 | 153241
     11 | 34:03.17 |  2:56.55 | 153242 | 166496
     12 | 36:59.72 |  3:18.18 | 166497 | 181364
     13 | 40:18.15 |  3:10.21 | 181365 | 195635
     14 | 43:28.36 |  3:02.26 | 195636 | 209311
     15 | 46:30.62 |  2:58.44 | 209312 | 222705
     16 | 49:29.31 |  3:02.73 | 222706 | 236428

范围状态及错误
已选择范围
     文件名 C:\Users\hp\Desktop\zjhjr\张平福\张平福 - 新春好日子(2).wav
     峰值电平 98.8 %
     抓取速度 2.0 X
     范围质量 100.0 %
     复制 CRC CE94789B
     复制成功
没有错误发生

AccurateRip 摘要

音轨  1  在数据库中不存在
音轨  2  在数据库中不存在
音轨  3  在数据库中不存在
音轨  4  在数据库中不存在
音轨  5  在数据库中不存在
音轨  6  在数据库中不存在
音轨  7  在数据库中不存在
音轨  8  在数据库中不存在
音轨  9  在数据库中不存在
音轨 10  在数据库中不存在
音轨 11  在数据库中不存在
音轨 12  在数据库中不存在
音轨 13  在数据库中不存在
音轨 14  在数据库中不存在
音轨 15  在数据库中不存在
音轨 16  在数据库中不存在

没有任何音轨在 AccurateRip 数据库中有记录


张平福《新春好日子》密码.rar

135 Bytes, 下载次数: 27

售价: 30 金币  [记录]

评分

已有 1 人评分威望 金币 贡献 收起 理由
教官 + 16 + 32 + 16

总评分: 威望 + 16 金币 + 32 贡献 + 16 查看全部评分

回复

使用道具 举报

签到天数: 350 天

[LV.8]以坛为家I

50

主题

761

帖子

8784

积分

金牌会员

Rank: 6Rank: 6

积分
8784
威望
1289
金币
4932
贡献
508

发帖高手勋章

发表于 2018-3-12 21:47:34 | 显示全部楼层
本帖最后由 ZHZ 于 2018-3-12 21:52 编辑

我的EAC无法设置出如此抓轨目录,不知何故,10年前得到的软件,没有换过。
回复

使用道具 举报

签到天数: 339 天

[LV.8]以坛为家I

28

主题

1997

帖子

6313

积分

中级会员

Rank: 3Rank: 3

积分
6313
威望
1505
金币
1252
贡献
54
发表于 2018-3-13 02:03:13 | 显示全部楼层
感谢分享,张大师的编配果然不同凡响,试听“南泥湾”居然可以这样演绎,很新鲜!
回复

使用道具 举报

签到天数: 310 天

[LV.8]以坛为家I

3

主题

421

帖子

915

积分

新手上路

Rank: 1

积分
915
威望
94
金币
306
贡献
0
发表于 2018-3-13 07:46:14 | 显示全部楼层
值得收藏的音乐,谢谢大大的分享
回复

使用道具 举报

签到天数: 358 天

[LV.8]以坛为家I

57

主题

611

帖子

7963

积分

高级会员

Rank: 4

积分
7963
威望
856
金币
5401
贡献
239
发表于 2018-3-13 08:39:03 | 显示全部楼层
皆大欢喜 好碟一张 感谢版主推荐
回复

使用道具 举报

签到天数: 224 天

[LV.7]常住居民III

1

主题

261

帖子

596

积分

新手上路

Rank: 1

积分
596
威望
36
金币
263
贡献
0
发表于 2018-3-13 09:56:38 | 显示全部楼层
纯音乐演奏还是别有一番风味
回复

使用道具 举报

签到天数: 355 天

[LV.8]以坛为家I

1

主题

542

帖子

1061

积分

新手上路

Rank: 1

积分
1061
威望
183
金币
153
贡献
0
发表于 2018-3-13 10:32:51 | 显示全部楼层
动听的音乐,喜欢,谢谢!
回复

使用道具 举报

签到天数: 39 天

[LV.5]常住居民I

10

主题

68

帖子

2922

积分

注册会员

Rank: 2

积分
2922
威望
191
金币
2372
贡献
100
发表于 2018-3-13 11:10:39 | 显示全部楼层
张大师的作品从来没有让人失望过。他制作的恰恰连环转也非常好听
回复

使用道具 举报

签到天数: 97 天

[LV.6]常住居民II

10

主题

143

帖子

829

积分

新手上路

Rank: 1

积分
829
威望
56
金币
489
贡献
85

斑竹专用勋章

发表于 2018-3-13 16:23:45 | 显示全部楼层
这张好,这是我的大爱啊,超喜欢张平福,我不客气了,谢谢
回复

使用道具 举报

签到天数: 79 天

[LV.6]常住居民II

2

主题

160

帖子

743

积分

新手上路

Rank: 1

积分
743
威望
71
金币
441
贡献
0
发表于 2018-3-14 10:35:09 | 显示全部楼层
张平福的作品伴奏很有风格,电子乐与民乐相结合,好听。
回复

使用道具 举报

您需要登录后才可以回帖 登录 | 立即注册

本版积分规则

数字音乐论坛

Archiver|手机版|小黑屋|数字音乐论坛 ( 津ICP备09009336号-1 )

GMT+8, 2018-12-12 17:54 , Processed in 1.374000 second(s), 56 queries .

Powered by Discuz! X3.4

© 2001-2017 Comsenz Inc.

快速回复 返回顶部 返回列表