请选择 进入手机版 | 继续访问电脑版
查看: 253|回复: 12

[原创] [金素梅 - 多情痴心][WAV/492MB][百度]

[复制链接]

签到天数: 70 天

[LV.6]常住居民II

285

主题

356

帖子

4万

积分

版主

Rank: 7Rank: 7Rank: 7

积分
47310
威望
5895
金币
31910
贡献
2979

斑竹专用勋章

发表于 2018-3-16 19:09:41 | 显示全部楼层 |阅读模式
本帖最后由 zjhjr 于 2018-3-16 19:13 编辑

IMG_2829.JPG

金素梅

多情癡心

01多情

02像夢一樣的女子
03等到這裡
04裝傻的人
05給誰
06癡心
07今生不了情不了
08對不起,我又忘了
09讓我遇見你
10也好
游客,如果您要查看本帖隐藏内容请回复

IMG_2830.JPG
IMG_2831.JPG

Exact Audio Copy V1.0 beta 3 from 29. August 2011
EAC 抓取日志文件从7. 七月 2017, 20:18
金素梅 / 多情癡心
使用驱动器  :PIONEER DVD-RW  DVR-XT11   Adapter: 0  ID: 0
读取模式      : 可靠Secure
使用精确流     : 是
清空音频缓存    : 是
使用 C2 指示器 : 否
读取偏移校正:               : 6
读取 Lead-In 和 Lead-Out : 否
用静音填充抓取中丢失偏移的采样       : 是
去除首尾静音块               : 否
在CRC 计算中使用了空样本       : 是
已用接口                  : 已安装外部 ASPI 接口
所用输出模式: : 内部 WAV 函数
样本格式    : 44.100 Hz; 16 Bit; 立体声

已抓取 CD 的 TOC
     音轨 |    起始    |    长度    |  起始扇区  |  结束扇区  
    --------------------------------------------
      1 |  0:00.00 |  5:16.50 |      0 |  23749
      2 |  5:16.50 |  5:33.25 |  23750 |  48749
      3 | 10:50.00 |  4:23.00 |  48750 |  68474
      4 | 15:13.00 |  4:32.25 |  68475 |  88899
      5 | 19:45.25 |  4:36.25 |  88900 | 109624
      6 | 24:21.50 |  5:14.00 | 109625 | 133174
      7 | 29:35.50 |  4:45.62 | 133175 | 154611
      8 | 34:21.37 |  4:02.25 | 154612 | 172786
      9 | 38:23.62 |  4:47.13 | 172787 | 194324
     10 | 43:11.00 |  4:30.50 | 194325 | 214624

范围状态及错误
已选择范围
     文件名 C:\Users\hp\Desktop\zjhjr\金素梅\金素梅 - 多情癡心.wav
     峰值电平 92.2 %
     抓取速度 2.0 X
     范围质量 100.0 %
     复制 CRC BAF4EE44
     复制成功
没有错误发生

AccurateRip 摘要

音轨  1  不能准确地校验 (确认 2)  [CA9E63F2], 返回 AccurateRip [CEC3BD9B]  (AR v2)
音轨  2  不能准确地校验 (确认 2)  [EA0F379D], 返回 AccurateRip [0B713A7C]  (AR v2)
音轨  3  不能准确地校验 (确认 2)  [C51B5011], 返回 AccurateRip [448322E5]  (AR v2)
音轨  4  不能准确地校验 (确认 2)  [140A8CED], 返回 AccurateRip [8710B990]  (AR v2)
音轨  5  不能准确地校验 (确认 1)  [5F76EBD8], 返回 AccurateRip [88145FA6]  (AR v2)
音轨  6  不能准确地校验 (确认 1)  [68F38FB9], 返回 AccurateRip [B2C7031B]  (AR v2)
音轨  7  不能准确地校验 (确认 1)  [8446459F], 返回 AccurateRip [580D6EBB]  (AR v2)
音轨  8  不能准确地校验 (确认 1)  [5DE8800B], 返回 AccurateRip [0CDD413A]  (AR v2)
音轨  9  不能准确地校验 (确认 2)  [AF963716], 返回 AccurateRip [D363EFD7]  (AR v2)
音轨 10  不能准确地校验 (确认 1)  [7B6BDEB3], 返回 AccurateRip [565C832F]  (AR v2)

没有音轨被准确核实
你的版本可能与数据库的版本不同
状态报告结尾



金素梅《多情痴心》密码.rar

131 Bytes, 下载次数: 13

售价: 20 金币  [记录]

评分

参与人数 1威望 +8 金币 +16 贡献 +8 收起 理由
WSAN + 8 + 16 + 8

查看全部评分

回复

使用道具 举报

签到天数: 139 天

[LV.7]常住居民III

1

主题

248

帖子

851

积分

新手上路

Rank: 1

积分
851
威望
105
金币
393
贡献
0
发表于 2018-3-17 04:39:41 | 显示全部楼层
高金素梅一位非常值得尊敬的歌者,谢谢分享辛苦了。
回复

使用道具 举报

签到天数: 148 天

[LV.7]常住居民III

1

主题

509

帖子

1547

积分

新手上路

Rank: 1

积分
1547
威望
341
金币
355
贡献
1
发表于 2018-3-17 11:24:49 | 显示全部楼层
好听,都是些 耐听的作品。值得细细品味
回复

使用道具 举报

签到天数: 106 天

[LV.6]常住居民II

44

主题

206

帖子

6474

积分

中级会员

Rank: 3Rank: 3

积分
6474
威望
1012
金币
3565
贡献
679
发表于 2018-3-17 18:00:20 | 显示全部楼层
好熟悉的歌,收下多謝。
回复

使用道具 举报

签到天数: 51 天

[LV.5]常住居民I

2

主题

158

帖子

423

积分

新手上路

Rank: 1

积分
423
威望
106
金币
53
贡献
0
发表于 2018-3-18 09:58:07 | 显示全部楼层
最早聽金素梅的歌是和童安格演唱的《鉆與石》,現在經常在時事新聞里看到她的身影,謝謝分享
回复

使用道具 举报

签到天数: 55 天

[LV.5]常住居民I

1

主题

127

帖子

351

积分

新手上路

Rank: 1

积分
351
威望
62
金币
100
贡献
0
发表于 2018-3-20 14:13:32 | 显示全部楼层
hbl 发表于 2018-3-18 09:58
最早聽金素梅的歌是和童安格演唱的《鉆與石》,現在經常在時事新聞里看到她的身影,謝謝分享

后来改名高金素梅  从政了
回复

使用道具 举报

签到天数: 147 天

[LV.7]常住居民III

24

主题

1534

帖子

4635

积分

中级会员

Rank: 3Rank: 3

积分
4635
威望
1250
金币
565
贡献
36
发表于 2018-3-25 13:59:18 | 显示全部楼层
曾经的歌坛玉女,后来成为台湾政坛风云人物,真是人不可貌相
回复

使用道具 举报

签到天数: 141 天

[LV.7]常住居民III

11

主题

437

帖子

1283

积分

新手上路

Rank: 1

积分
1283
威望
282
金币
279
贡献
3
发表于 2018-3-25 18:18:00 | 显示全部楼层
这张专辑我也是听过的啊~
回复

使用道具 举报

签到天数: 18 天

[LV.4]偶尔看看III

1

主题

117

帖子

322

积分

新手上路

Rank: 1

积分
322
威望
97
金币
11
贡献
0
发表于 4 天前 | 显示全部楼层
好深情的歌唱,对于现在音乐的浮躁,真是强了万倍一亿倍。
回复

使用道具 举报

签到天数: 24 天

[LV.4]偶尔看看III

17

主题

123

帖子

1124

积分

新手上路

Rank: 1

积分
1124
威望
259
金币
426
贡献
57
发表于 4 天前 | 显示全部楼层
没听过,头一回欣赏,谢谢
回复

使用道具 举报

您需要登录后才可以回帖 登录 | 立即注册

本版积分规则

快速回复 返回顶部 返回列表