开启辅助访问 收藏本站

数字音乐论坛

 找回密码
 立即注册
查看: 861|回复: 22

[原创] [王洁实 谢莉斯-风雨辉煌30年歌曲珍藏2CD][WAV/1.13GB][百度]

[复制链接]

签到天数: 143 天

[LV.7]常住居民III

115

主题

281

帖子

2万

积分

贵宾

Rank: 7Rank: 7Rank: 7

积分
27303
威望
2170
金币
21567
贡献
1050

贵宾专用勋章

发表于 2018-3-20 14:10:34 | 显示全部楼层 |阅读模式
本帖最后由 asen 于 2018-3-20 15:06 编辑

封面.jpg

封底.jpg

歌词第37页.jpg

碟片.jpg

专辑:风雨辉煌30年-王洁实、谢莉斯歌曲珍藏版
编号:PCD-5994
演唱:王洁实  谢莉斯
出品:太平洋影音公司
转制:ASEN

试听:小橄榄


曲目
Vol.1
01.校园的早晨    [0:02:43.32]
02.外婆的澎湖湾    [0:03:02.39]
03.赤足走在田埂上    [0:02:29.54]
04.童年的回忆    [0:03:07.00]
05.踏着夕阳归去    [0:02:21.16]
06.婚誓    [0:04:43.24]
07.故乡恋情    [0:02:23.47]
08.追求    [0:02:54.73]
09.难诉相思    [0:04:05.46]
10.婚礼之歌    [0:02:33.38]
11.原野牧歌    [0:03:30.53]
12.敖包相会    [0:02:31.26]
13.踏浪    [0:03:05.60]
14.你带来一片温柔    [0:02:43.26]
15.我多想摘下一片白云    [0:02:10.73]
16.龙船调    [0:03:12.47]
17.天凉好个秋    [0:02:55.31]
18.北风    [0:03:02.67]
19.茶山相褒    [0:03:02.31]
20.校园多美好    [0:01:54.60]

Vol.2
01.祝愿歌    [0:02:00.65]
02.红河谷    [0:04:39.64]
03.假如    [0:02:51.00]
04.笑比哭好    [0:02:37.37]
05.不老的爸爸    [0:02:13.32]
06.九九艳阳天    [0:02:25.72]
07.绣荷包    [0:03:55.12]
08.康定情歌    [0:02:36.43]
09.想妹一天又一天    [0:02:18.59]
10.纷纷飘坠的音符    [0:02:00.33]
11.让我们看云去    [0:02:45.64]
12.可爱的北京    [0:02:45.70]
13.小橄榄    [0:03:38.59]
14.望月    [0:02:42.31]
15.脚印    [0:02:50.14]
16.鸡园    [0:02:35.68]
17.咏鹅    [0:02:30.72]
18. 男孩和女孩    [0:03:04.49]
19. 拜访春天    [0:03:26.09]
20. 何日才相会    [0:03:04.01]

游客,如果您要查看本帖隐藏内容请回复

密码.rar (97 Bytes, 下载次数: 28, 售价: 30 金币)

评分

已有 1 人评分威望 金币 贡献 收起 理由
教官 + 16 + 32 + 16 很给力!

总评分: 威望 + 16 金币 + 32 贡献 + 16 查看全部评分

回复

使用道具 举报

签到天数: 143 天

[LV.7]常住居民III

115

主题

281

帖子

2万

积分

贵宾

Rank: 7Rank: 7Rank: 7

积分
27303
威望
2170
金币
21567
贡献
1050

贵宾专用勋章

 楼主| 发表于 2018-3-20 15:01:18 | 显示全部楼层
本帖最后由 asen 于 2018-3-20 15:02 编辑

Exact Audio Copy V1.0 beta 4 from 7. December 2014

EAC 抓取日志文件从13. 三月 2018, 19:14

王洁实、谢莉斯 asen 转制 / 风雨辉煌30年

使用驱动器  :HL-DT-STDVDRAM GT30N   Adapter: 1  ID: 1

读取模式      : 可靠Secure
使用精确流     : 是
清空音频缓存    : 否
使用 C2 指示器 : 否

组合读写偏移校正:             : 0
读取 Lead-In 和 Lead-Out : 否
用静音填充抓取中丢失偏移的采样       : 是
去除首尾静音块               : 否
在CRC 计算中使用了空样本       : 是
已用接口                  : Win NT 及 2000 本地 Win32 接口

所用输出模式: : 内部 WAV 函数
样本格式    : 44.100 Hz; 16 Bit; 立体声


已抓取 CD 的 TOC

     音轨 |    起始    |    长度    |  起始扇区  |  结束扇区  
    --------------------------------------------
      1 |  0:00.00 |  2:43.32 |      0 |  12256
      2 |  2:43.32 |  3:02.39 |  12257 |  25945
      3 |  5:45.71 |  2:29.54 |  25946 |  37174
      4 |  8:15.50 |  3:07.00 |  37175 |  51199
      5 | 11:22.50 |  2:21.16 |  51200 |  61790
      6 | 13:43.66 |  4:43.24 |  61791 |  83039
      7 | 18:27.15 |  2:23.47 |  83040 |  93811
      8 | 20:50.62 |  2:54.73 |  93812 | 106934
      9 | 23:45.60 |  4:05.46 | 106935 | 125355
     10 | 27:51.31 |  2:33.38 | 125356 | 136868
     11 | 30:24.69 |  3:30.53 | 136869 | 152671
     12 | 33:55.47 |  2:31.26 | 152672 | 164022
     13 | 36:26.73 |  3:05.60 | 164023 | 177957
     14 | 39:32.58 |  2:43.26 | 177958 | 190208
     15 | 42:16.09 |  2:10.73 | 190209 | 200031
     16 | 44:27.07 |  3:12.47 | 200032 | 214478
     17 | 47:39.54 |  2:55.31 | 214479 | 227634
     18 | 50:35.10 |  3:02.67 | 227635 | 241351
     19 | 53:38.02 |  3:02.31 | 241352 | 255032
     20 | 56:40.33 |  1:54.60 | 255033 | 263642


范围状态及错误

已选择范围

     文件名 D:\My Documents\桌面\风雨辉煌30年-王洁实、谢莉斯歌曲珍藏版Vol.1\风雨辉煌30年.wav

     峰值电平 97.4 %
     抓取速度 3.3 X
     范围质量 99.9 %
     复制 CRC 1AB1AEA9
     复制成功

没有错误发生

状态报告结尾

--------------------------------------------------------------------------------------------------------------------------------------------
Exact Audio Copy V1.0 beta 4 from 7. December 2014

EAC 抓取日志文件从13. 三月 2018, 19:39

王洁实、谢莉斯 asen 转制 / 风雨辉煌30年Vol.2

使用驱动器  :HL-DT-STDVDRAM GT30N   Adapter: 1  ID: 1

读取模式      : 可靠Secure
使用精确流     : 是
清空音频缓存    : 否
使用 C2 指示器 : 否

组合读写偏移校正:             : 0
读取 Lead-In 和 Lead-Out : 否
用静音填充抓取中丢失偏移的采样       : 是
去除首尾静音块               : 否
在CRC 计算中使用了空样本       : 是
已用接口                  : Win NT 及 2000 本地 Win32 接口

所用输出模式: : 内部 WAV 函数
样本格式    : 44.100 Hz; 16 Bit; 立体声


已抓取 CD 的 TOC

     音轨 |    起始    |    长度    |  起始扇区  |  结束扇区  
    --------------------------------------------
      1 |  0:00.00 |  2:00.65 |      0 |   9064
      2 |  2:00.65 |  4:39.64 |   9065 |  30053
      3 |  6:40.54 |  2:51.00 |  30054 |  42878
      4 |  9:31.54 |  2:37.37 |  42879 |  54690
      5 | 12:09.16 |  2:13.32 |  54691 |  64697
      6 | 14:22.48 |  2:25.72 |  64698 |  75644
      7 | 16:48.45 |  3:55.12 |  75645 |  93281
      8 | 20:43.57 |  2:36.43 |  93282 | 105024
      9 | 23:20.25 |  2:18.59 | 105025 | 115433
     10 | 25:39.09 |  2:00.33 | 115434 | 124466
     11 | 27:39.42 |  2:45.64 | 124467 | 136905
     12 | 30:25.31 |  2:45.70 | 136906 | 149350
     13 | 33:11.26 |  3:38.59 | 149351 | 165759
     14 | 36:50.10 |  2:42.31 | 165760 | 177940
     15 | 39:32.41 |  2:50.14 | 177941 | 190704
     16 | 42:22.55 |  2:35.68 | 190705 | 202397
     17 | 44:58.48 |  2:30.72 | 202398 | 213719
     18 | 47:29.45 |  3:04.49 | 213720 | 227568
     19 | 50:34.19 |  3:26.09 | 227569 | 243027
     20 | 54:00.28 |  3:04.01 | 243028 | 256828


范围状态及错误

已选择范围

     文件名 D:\My Documents\桌面\风雨辉煌30年-王洁实、谢莉斯歌曲珍藏版Vol.2\风雨辉煌30年Vol.2.wav

     峰值电平 100.0 %
     抓取速度 3.2 X
     范围质量 100.0 %
     复制 CRC B4A2217E
     复制成功

没有错误发生

状态报告结尾

回复

使用道具 举报

签到天数: 338 天

[LV.8]以坛为家I

82

主题

711

帖子

8207

积分

版主

Rank: 7Rank: 7Rank: 7

积分
8207
威望
1207
金币
4711
贡献
366

斑竹专用勋章

发表于 2018-3-20 15:21:06 | 显示全部楼层
王洁实、谢莉斯的歌声伴着我们从青年走到了老年。限量版的专辑珍贵,谢谢 asen 友制作分享,辛苦了!
回复

使用道具 举报

签到天数: 169 天

[LV.7]常住居民III

15

主题

627

帖子

2248

积分

注册会员

Rank: 2

积分
2248
威望
669
金币
164
贡献
119
发表于 2018-3-20 18:04:24 | 显示全部楼层
应该算是国内最早的男女二重唱了吧
回复

使用道具 举报

签到天数: 291 天

[LV.8]以坛为家I

2

主题

926

帖子

2252

积分

注册会员

Rank: 2

积分
2252
威望
587
金币
152
贡献
0
发表于 2018-3-20 19:23:59 | 显示全部楼层
时光荏苒,太平洋的这2张纪念版专辑发行都又过了十年了,勾起了对年轻时候满满的回忆
回复

使用道具 举报

签到天数: 45 天

[LV.5]常住居民I

1

主题

84

帖子

241

积分

禁止发言

积分
241
威望
39
金币
79
贡献
0
发表于 2018-3-20 22:26:38 | 显示全部楼层
提示: 作者被禁止或删除 内容自动屏蔽
回复

使用道具 举报

签到天数: 336 天

[LV.8]以坛为家I

42

主题

593

帖子

1568

积分

新手上路

Rank: 1

积分
1568
威望
238
金币
499
贡献
0
发表于 2018-3-20 22:26:53 | 显示全部楼层
很著名的男女二重唱了,支持楼主分享!
回复

使用道具 举报

签到天数: 322 天

[LV.8]以坛为家I

1

主题

795

帖子

2245

积分

注册会员

Rank: 2

积分
2245
威望
439
金币
571
贡献
1
发表于 2018-3-21 11:38:21 | 显示全部楼层
听着这些歌长大滴,美好的回忆
回复

使用道具 举报

签到天数: 51 天

[LV.5]常住居民I

2

主题

158

帖子

423

积分

新手上路

Rank: 1

积分
423
威望
106
金币
53
贡献
0
发表于 2018-3-22 19:40:54 | 显示全部楼层
80年代初臺灣校園民歌之所以在大陸為大眾所接受并廣為傳唱,王結實和謝莉斯功不可沒,謝謝制作分享
回复

使用道具 举报

签到天数: 295 天

[LV.8]以坛为家I

1

主题

409

帖子

685

积分

新手上路

Rank: 1

积分
685
威望
113
金币
50
贡献
0
发表于 2018-3-23 12:03:41 | 显示全部楼层
中国男女生二重唱绝对是NO1,勾起了年少的回忆。
回复

使用道具 举报

您需要登录后才可以回帖 登录 | 立即注册

本版积分规则

数字音乐论坛

Archiver|手机版|小黑屋|数字音乐论坛 ( 津ICP备09009336号-1 )

GMT+8, 2018-11-22 04:12 , Processed in 1.326000 second(s), 57 queries .

Powered by Discuz! X3.4

© 2008-2018 Comsenz Inc.|上网要文明 发言要理性 本站禁灌水

快速回复 返回顶部 返回列表