开启辅助访问 天气预报 收藏本站

数字音乐论坛

 找回密码
 立即注册
快捷导航
查看: 1036|回复: 16

[杨钰莹 《依然情深》][WAV/719MB/优速]

[复制链接]

签到天数: 373 天

[LV.9]以坛为家II

724

主题

1125

帖子

3万

积分

论坛元老

Rank: 8Rank: 8

积分
34185
威望
5522
金币
17107
贡献
4909

发帖高手勋章

发表于 2018-3-22 21:32:21 | 显示全部楼层 |阅读模式
杨钰莹 - 《依然情深》

                               
登录/注册后可看大图

专辑名称:依然情深
专辑艺人:杨钰莹
策划制作:魔音唱片
发行公司:星文唱片
出版公司:广州新时代影音公司
ISRC:CN-F21-08-420-00/A.J6
碟号:LPCD-0200
条形码: 9787201111247
发行时间:2010
语言:国语
◆◆专辑简介◆◆
《杨钰莹依然情深》十几年前,一个笑容甜甜的长发女生开始频频出现在电视上,她就是杨钰莹。
凭借醉人的温柔歌喉,再配上一张楚楚动人的青春面孔,她赢得了众多歌迷的喜爱。
然而复出后的杨钰莹,依然保持甜美笑容。
甜歌是杨钰莹的招牌,被誉为“甜歌皇后”。
曲目:
01.茶山情歌
02.风含情水含笑
03.月亮船
04.我不想说

05.轻轻地告诉你
06.等你一万年
07.梅花雪
08.你看蓝蓝的天
09.天各一方
10.晚霞中的红蜻蜓
11.落花
12.因为有你
13.是否我不该等你
14.星星是我看你的眼睛
游客,如果您要查看本帖隐藏内容请回复

如需解码请使用本站域名解压即可!www.22090.com

  1. Exact Audio Copy V1.0 beta 2 from 29. April 2011

  2. EAC日志文件创建时间:30. 三月 2012, 20:15

  3. 杨钰莹 / 依然情深

  4. 光驱型号   ATAPI   iHDP118   4   Adapter: 1  ID: 1

  5. 抓轨模式   : 精确模式
  6. 使用精确流  : 是
  7. 屏蔽数据缓存 : 否
  8. 使用C2纠错 : 否

  9. 合并读写偏移校正           : 0
  10. 通读Lead-In和Lead-Out : 否
  11. 用静音填充丢失的偏移采样       : 是
  12. 删除开始与结尾的静音部分       : 否
  13. 校验和计算中使用空白采样       : 否
  14. 使用的接口              : Win NT & 2000 的本地Win32接口

  15. 输出格式    : 内部WAV例程
  16. 采样格式    : 44.100 Hz; 16 Bit; 立体声


  17. CD内容目录(TOC)

  18.      Track |   Start  |  Length  | Start sector | End sector
  19.     ---------------------------------------------------------
  20.         1  |  0:00.00 |  3:55.65 |         0    |    17689   
  21.         2  |  3:55.65 |  4:21.65 |     17690    |    37329   
  22.         3  |  8:17.55 |  5:25.47 |     37330    |    61751   
  23.         4  | 13:43.27 |  4:31.29 |     61752    |    82105   
  24.         5  | 18:14.56 |  4:42.10 |     82106    |   103265   
  25.         6  | 22:56.66 |  4:02.14 |    103266    |   121429   
  26.         7  | 26:59.05 |  3:55.41 |    121430    |   139095   
  27.         8  | 30:54.46 |  4:37.43 |    139096    |   159913   
  28.         9  | 35:32.14 |  4:28.72 |    159914    |   180085   
  29.        10  | 40:01.11 |  4:20.65 |    180086    |   199650   
  30.        11  | 44:22.01 |  4:28.70 |    199651    |   219820   
  31.        12  | 48:50.71 |  5:22.63 |    219821    |   244033   
  32.        13  | 54:13.59 |  4:54.67 |    244034    |   266150   
  33.        14  | 59:08.51 |  4:38.43 |    266151    |   287043   


  34. ===以下为抓取选定区域的结果报告===

  35. 选定区域为(空白为全盘镜像):

  36.      抓轨文件 :d:\我的文档\My ISO Files\杨钰莹 - 依然情深.wav

  37.      峰值电平 :100.0 %
  38.      抓轨速度 :9.5 X
  39.      范围质量 :100.0 %
  40.      复制CRC:9765614E
  41.      复制成功 !

  42. 没有错误发生

  43. 日志文件结束
复制代码




评分

参与人数 1威望 +2 金币 +4 贡献 +2 收起 理由
教官 + 2 + 4 + 2

查看全部评分

我新发布了帖子《[李玲玉《甜甜甜》太平洋首版[WAV+CUE][324MB/百度]》,快来围观吧!
回复

使用道具 举报

签到天数: 695 天

[LV.9]以坛为家II

1

主题

1453

帖子

3422

积分

中级会员

Rank: 3Rank: 3

积分
3422
威望
638
金币
693
贡献
0
发表于 2018-3-23 01:04:30 | 显示全部楼层
甜歌时代一去不返,好怀念。。。
回复

使用道具 举报

签到天数: 141 天

[LV.7]常住居民III

2

主题

439

帖子

1725

积分

新手上路

Rank: 1

积分
1725
威望
290
金币
702
贡献
4

斑竹专用勋章

发表于 2018-3-23 07:29:51 | 显示全部楼层
从刚出道的青涩,到大红大紫,纵贯南北,从一夜之间消失在歌坛,再到依旧靓丽的复出,转战各大银屏,她什么都没说,也不想说,只想要歌声告诉你:一样的天、一样的脸、一样的我、就在你的面前......一样的杨钰莹,依旧是大家非常喜欢的歌手。
回复

使用道具 举报

签到天数: 154 天

[LV.7]常住居民III

2

主题

471

帖子

1211

积分

禁止访问

积分
1211
威望
321
金币
96
贡献
2
发表于 2018-3-23 08:28:32 | 显示全部楼层
提示: 作者被禁止或删除 内容自动屏蔽
回复

使用道具 举报

签到天数: 68 天

[LV.6]常住居民II

1

主题

343

帖子

898

积分

新手上路

Rank: 1

积分
898
威望
273
金币
7
贡献
2
发表于 2018-3-23 10:59:57 | 显示全部楼层
很喜欢<我不想说>这首歌! 每个人都有过去,有欢乐,有苦涩! 但我们依然要面对明天! 多谢楼主分享这个专辑, 唤起我们记忆中的甜美,清纯的杨钰莹!
回复

使用道具 举报

签到天数: 552 天

[LV.9]以坛为家II

1

主题

582

帖子

1606

积分

新手上路

Rank: 1

积分
1606
威望
22
金币
980
贡献
0
发表于 2018-3-27 11:54:16 | 显示全部楼层
都是很喜欢的歌,可惜音质不会有令人惊喜的效果吧。即使是CD的载体。
回复

使用道具 举报

签到天数: 398 天

[LV.9]以坛为家II

12

主题

824

帖子

1851

积分

新手上路

Rank: 1

积分
1851
威望
408
金币
208
贡献
3
发表于 2018-3-31 11:05:08 | 显示全部楼层
这张专辑国内也有出过,好作品挺多的啊。
回复

使用道具 举报

签到天数: 1 天

[LV.1]初来乍到

1

主题

20

帖子

101

积分

禁止访问

积分
101
威望
18
金币
45
贡献
0
发表于 2018-5-5 01:00:50 | 显示全部楼层
提示: 作者被禁止或删除 内容自动屏蔽
回复

使用道具 举报

签到天数: 129 天

[LV.7]常住居民III

1

主题

256

帖子

513

积分

新手上路

Rank: 1

积分
513
威望
121
金币
15
贡献
0
发表于 2019-6-7 11:15:55 | 显示全部楼层
杨钰莹在相当年充满活力和魅力,非常可爱的小姑娘,歌也很清纯,记忆很深。
回复

使用道具 举报

签到天数: 151 天

[LV.7]常住居民III

14

主题

244

帖子

1689

积分

新手上路

Rank: 1

积分
1689
威望
272
金币
801
贡献
100
发表于 2019-6-7 13:19:09 | 显示全部楼层
这个是再版的精选吧,很不错
回复

使用道具 举报

您需要登录后才可以回帖 登录 | 立即注册

本版积分规则

Title - Artist
0:00

    Archiver|手机版|小黑屋|数字音乐论坛 ( 津ICP备09009336号-1 )

    GMT+8, 2019-12-8 20:31 , Processed in 0.343750 second(s), 49 queries .

    Powered by Discuz! X3.4

    © 2008-2019 上网要文明 发言要理性 本站禁灌水

    快速回复 返回顶部 返回列表