请选择 进入手机版 | 继续访问电脑版

数字音乐论坛

 找回密码
 立即注册
查看: 273|回复: 10

[原创] 陈俐羂【忘记你无能为力】【WAV整轨+原声原影DVD】【WAV547 MB+DVD3.66 GB】【百度...

[复制链接]

签到天数: 30 天

[LV.5]常住居民I

10

主题

57

帖子

2247

积分

注册会员

Rank: 2

积分
2247
威望
189
金币
1712
贡献
100
发表于 2018-4-4 17:45:43 | 显示全部楼层 |阅读模式
本帖最后由 人生就是戏 于 2018-4-4 18:00 编辑

专辑歌手:陈俐羂
专辑名称:忘记你无能为力
出版公司:南方唱片机构有限公司
所属国家:马来西亚
专辑语言:汉语,福建话
出版时间:2017年
专辑曲目:
01.忘记你无能为力

02.再回到从前
03.忘情森吧舞
04.刚好遇见你
05.误会{原创}
06.制造浪漫(侯俊辉合唱)
07.下定决心忘记你
08.高山青+娜奴娃情歌
09.我会等待你
10.酒后更想你
11.客途秋恨
12.午夜梦回时
13.我会等待你(福建)
14.制造浪漫
下载地址:
游客,如果您要查看本帖隐藏内容请回复




陈俐羂\【忘记你无能为力】封面.jpg
陈俐羂\【忘记你无能为力】内.jpg
陈俐羂\【忘记你无能为力】DVD.jpg
陈俐羂\【忘记你无能为力】CD.jpg
陈俐羂\【忘记你无能为力】封底.jpg

陈俐羂\【忘记你无能为力】CD下载密码 (1).rar

138 Bytes, 下载次数: 18

售价: 30 金币  [记录]

陈俐羂\【忘记你无能为力】DVD下载密码 (2).rar

142 Bytes, 下载次数: 11

售价: 30 金币  [记录]

评分

已有 1 人评分威望 金币 贡献 收起 理由
教官 + 16 + 32 + 16 赞一个!

总评分: 威望 + 16 金币 + 32 贡献 + 16 查看全部评分

回复

使用道具 举报

签到天数: 30 天

[LV.5]常住居民I

10

主题

57

帖子

2247

积分

注册会员

Rank: 2

积分
2247
威望
189
金币
1712
贡献
100
 楼主| 发表于 2018-4-4 18:01:29 | 显示全部楼层
Exact Audio Copy V1.3 from 2. September 2016

EAC 抓取日志文件从3. 四月 2018, 13:32

陈俐羂 / 忘记你无能为力

使用驱动器  :HL-DT-STDVDRAM GH24NSC0   Adapter: 1  ID: 0

读取模式      : 可靠Secure
使用精确流     : 是
清空音频缓存    : 否
使用 C2 指示器 : 否

读取偏移校正:               : 6
读取 Lead-In 和 Lead-Out : 否
用静音填充抓取中丢失偏移的采样       : 是
去除首尾静音块               : 否
在CRC 计算中使用了空样本       : 是
已用接口                  : Win NT 及 2000 本地 Win32 接口

所用输出模式: : 内部 WAV 函数
样本格式    : 44.100 Hz; 16 Bit; 立体声


已抓取 CD 的 TOC

     音轨 |    起始    |    长度    |  起始扇区  |  结束扇区  
    --------------------------------------------
      1 |  0:00.00 |  4:20.31 |      0 |  19530
      2 |  4:20.31 |  4:10.12 |  19531 |  38292
      3 |  8:30.43 |  3:38.71 |  38293 |  54713
      4 | 12:09.39 |  3:21.19 |  54714 |  69807
      5 | 15:30.58 |  3:55.41 |  69808 |  87473
      6 | 19:26.24 |  4:11.39 |  87474 | 106337
      7 | 23:37.63 |  3:45.28 | 106338 | 123240
      8 | 27:23.16 |  4:38.29 | 123241 | 144119
      9 | 32:01.45 |  4:51.63 | 144120 | 166007
     10 | 36:53.33 |  4:30.55 | 166008 | 186312
     11 | 41:24.13 |  4:09.57 | 186313 | 205044
     12 | 45:33.70 |  3:48.72 | 205045 | 222216
     13 | 49:22.67 |  4:49.63 | 222217 | 243954


范围状态及错误

已选择范围

     文件名 C:\Users\Administrator\Desktop\陈俐羂【忘记你无能为力】\陈俐羂 - 忘记你无能为力.wav

     峰值电平 99.7 %
     抓取速度 11.0 X
     范围质量 100.0 %
     复制 CRC 9BA026A6
     复制成功

没有错误发生


AccurateRip 摘要

音轨  1  在数据库中不存在
音轨  2  在数据库中不存在
音轨  3  在数据库中不存在
音轨  4  在数据库中不存在
音轨  5  在数据库中不存在
音轨  6  在数据库中不存在
音轨  7  在数据库中不存在
音轨  8  在数据库中不存在
音轨  9  在数据库中不存在
音轨 10  在数据库中不存在
音轨 11  在数据库中不存在
音轨 12  在数据库中不存在
音轨 13  在数据库中不存在

没有任何音轨在 AccurateRip 数据库中有记录

状态报告结尾

---- CUETools DB Plugin V2.1.6

[CTDB TOCID: kUCUitV9XdP5DsNwNGYeWyFBQ.I-] disk not present in database
Submit result: kUCUitV9XdP5DsNwNGYeWyFBQ.I- has been uploaded


------------------------------------------------------------

Exact Audio Copy V1.3 from 2. September 2016

EAC 抓取日志文件从3. 四月 2018, 13:33

陈俐羂 / 忘记你无能为力

使用驱动器  :HL-DT-STDVDRAM GH24NSC0   Adapter: 1  ID: 0

读取模式      : 可靠Secure
使用精确流     : 是
清空音频缓存    : 否
使用 C2 指示器 : 否

读取偏移校正:               : 6
读取 Lead-In 和 Lead-Out : 否
用静音填充抓取中丢失偏移的采样       : 是
去除首尾静音块               : 否
在CRC 计算中使用了空样本       : 是
已用接口                  : Win NT 及 2000 本地 Win32 接口

所用输出模式: : 内部 WAV 函数
样本格式    : 44.100 Hz; 16 Bit; 立体声


已抓取 CD 的 TOC

     音轨 |    起始    |    长度    |  起始扇区  |  结束扇区  
    --------------------------------------------
      1 |  0:00.00 |  4:20.31 |      0 |  19530
      2 |  4:20.31 |  4:10.12 |  19531 |  38292
      3 |  8:30.43 |  3:38.71 |  38293 |  54713
      4 | 12:09.39 |  3:21.19 |  54714 |  69807
      5 | 15:30.58 |  3:55.41 |  69808 |  87473
      6 | 19:26.24 |  4:11.39 |  87474 | 106337
      7 | 23:37.63 |  3:45.28 | 106338 | 123240
      8 | 27:23.16 |  4:38.29 | 123241 | 144119
      9 | 32:01.45 |  4:51.63 | 144120 | 166007
     10 | 36:53.33 |  4:30.55 | 166008 | 186312
     11 | 41:24.13 |  4:09.57 | 186313 | 205044
     12 | 45:33.70 |  3:48.72 | 205045 | 222216
     13 | 49:22.67 |  4:49.63 | 222217 | 243954


范围状态及错误

已选择范围

     文件名 C:\Users\Administrator\Desktop\陈俐羂【忘记你无能为力】\陈俐羂 - 忘记你无能为力.wav

     峰值电平 99.7 %
     抓取速度 11.0 X
     范围质量 100.0 %
     复制 CRC 9BA026A6
     复制成功

没有错误发生


AccurateRip 摘要

音轨  1  在数据库中不存在
音轨  2  在数据库中不存在
音轨  3  在数据库中不存在
音轨  4  在数据库中不存在
音轨  5  在数据库中不存在
音轨  6  在数据库中不存在
音轨  7  在数据库中不存在
音轨  8  在数据库中不存在
音轨  9  在数据库中不存在
音轨 10  在数据库中不存在
音轨 11  在数据库中不存在
音轨 12  在数据库中不存在
音轨 13  在数据库中不存在

没有任何音轨在 AccurateRip 数据库中有记录

状态报告结尾

---- CUETools DB Plugin V2.1.6

[CTDB TOCID: kUCUitV9XdP5DsNwNGYeWyFBQ.I-] disk not present in database
Submit result: kUCUitV9XdP5DsNwNGYeWyFBQ.I- has been uploaded
回复

使用道具 举报

签到天数: 122 天

[LV.7]常住居民III

29

主题

271

帖子

7244

积分

高级会员

Rank: 4

积分
7244
威望
721
金币
5208
贡献
278

发帖高手勋章

发表于 2018-4-4 18:03:07 | 显示全部楼层
陈丽娟的听过一张感觉还不错
回复

使用道具 举报

签到天数: 185 天

[LV.7]常住居民III

1

主题

699

帖子

1788

积分

新手上路

Rank: 1

积分
1788
威望
413
金币
263
贡献
0
发表于 2018-4-4 18:15:38 | 显示全部楼层
感觉这种风格刚刚好,太时尚的曲风接受不了。人老了没办法,哈哈。
回复

使用道具 举报

签到天数: 164 天

[LV.7]常住居民III

1

主题

464

帖子

1605

积分

新手上路

Rank: 1

积分
1605
威望
288
金币
565
贡献
0
发表于 2018-4-4 20:46:11 | 显示全部楼层
声音很舒服啊!谢谢!
回复

使用道具 举报

签到天数: 128 天

[LV.7]常住居民III

45

主题

238

帖子

6641

积分

中级会员

Rank: 3Rank: 3

积分
6641
威望
1045
金币
3617
贡献
696
发表于 2018-4-4 21:59:42 | 显示全部楼层
听起来不错嘛。
回复

使用道具 举报

签到天数: 100 天

[LV.6]常住居民II

9

主题

224

帖子

672

积分

新手上路

Rank: 1

积分
672
威望
153
金币
132
贡献
10
发表于 2018-4-5 09:11:48 | 显示全部楼层
试听很棒!!
回复

使用道具 举报

签到天数: 168 天

[LV.7]常住居民III

11

主题

467

帖子

1319

积分

新手上路

Rank: 1

积分
1319
威望
285
金币
279
贡献
3
发表于 2018-4-5 12:29:57 | 显示全部楼层
楼主是马来西亚人吧,记得你发过欧俪雯的专辑。
回复

使用道具 举报

签到天数: 30 天

[LV.5]常住居民I

10

主题

57

帖子

2247

积分

注册会员

Rank: 2

积分
2247
威望
189
金币
1712
贡献
100
 楼主| 发表于 2018-4-5 12:35:40 | 显示全部楼层
wenwen70 发表于 2018-4-5 12:29
楼主是马来西亚人吧,记得你发过欧俪雯的专辑。

NONONO........俺是成都人。这些专辑都是我在YOUTUBE通过南方唱片官方购买邮寄回来的。一次邮寄几十张,很划算。
回复

使用道具 举报

签到天数: 170 天

[LV.7]常住居民III

2

主题

313

帖子

700

积分

新手上路

Rank: 1

积分
700
威望
132
金币
123
贡献
0
发表于 2018-6-13 17:11:35 | 显示全部楼层
听听女生版的王青森巴舞,谢谢分享!
回复

使用道具 举报

您需要登录后才可以回帖 登录 | 立即注册

本版积分规则

数字音乐论坛

Archiver|手机版|小黑屋|数字音乐论坛 ( 津ICP备09009336号-1 )

GMT+8, 2018-6-23 10:39 , Processed in 0.148306 second(s), 30 queries .

Powered by Discuz! X3.4

© 2008-2018 Comsenz Inc.|上网要文明 发言要理性 本站禁灌水

快速回复 返回顶部 返回列表