请选择 进入手机版 | 继续访问电脑版
查看: 215|回复: 12

[原创] 马来群星【不一样网络情歌】【WAV+CUE.609 MB/DVD+IFO3.79 GB】【百度云】

[复制链接]

签到天数: 25 天

[LV.4]偶尔看看III

10

主题

50

帖子

2070

积分

注册会员

Rank: 2

积分
2070
威望
187
金币
1546
贡献
100
发表于 2018-4-5 11:59:32 | 显示全部楼层 |阅读模式
专辑歌手:马来群星
专辑名称:不一样网络情歌
出版公司:南方唱片机构有限公司
所属国家:马来西亚
专辑语言:汉语
出版时间:2018年
资源格式:CD页:WAV+CUE
          DVD页:VOB+IFO
资源大小:CD页:609 MB
          DVD页:3.79 GB
专辑曲目:


01.我们不一样........................陈丽媚
02.我们不一样........................钟伟
03.没有你陪伴真的好孤单..............杨克意
04.刚好遇见你........................陈俐羂
05.菊花爆满山........................郭雯雯
06.许多年以后........................陈丽媚
07.老同学............................许文友
08.酒后更想你........................林秉材
09.下定决心忘记你....................陈俐羂
10.女人心............................郭雯雯
11.默................................黄晓凤
12.两个人的回忆一个人过..............程慧文
13.把爱深藏..........................欧俪雯
14.爱的期限..........................黄晓凤

下载地址:
游客,如果您要查看本帖隐藏内容请回复




群星【不一样网络情歌】封面.jpg
群星【不一样网络情歌】DVD.jpg
群星【不一样网络情歌】CD.jpg
群星【不一样网络情歌】封底.jpg

群星【不一样网络情歌】CD提取码.rar

176 Bytes, 下载次数: 5

售价: 30 金币  [记录]

群星【不一样网络情歌】DVD提取码2.rar

178 Bytes, 下载次数: 3

售价: 30 金币  [记录]

评分

参与人数 1威望 +16 金币 +32 贡献 +16 收起 理由
教官 + 16 + 32 + 16 赞一个!

查看全部评分

回复

使用道具 举报

签到天数: 25 天

[LV.4]偶尔看看III

10

主题

50

帖子

2070

积分

注册会员

Rank: 2

积分
2070
威望
187
金币
1546
贡献
100
 楼主| 发表于 2018-4-5 12:19:35 | 显示全部楼层
Exact Audio Copy V1.3 from 2. September 2016

EAC 抓取日志文件从3. 四月 2018, 13:10

未知艺术家 / 未知标题

使用驱动器  :HL-DT-STDVDRAM GH24NSC0   Adapter: 1  ID: 0

读取模式      : 可靠Secure
使用精确流     : 是
清空音频缓存    : 否
使用 C2 指示器 : 否

读取偏移校正:               : 6
读取 Lead-In 和 Lead-Out : 否
用静音填充抓取中丢失偏移的采样       : 是
去除首尾静音块               : 否
在CRC 计算中使用了空样本       : 是
已用接口                  : Win NT 及 2000 本地 Win32 接口

所用输出模式: : 内部 WAV 函数
样本格式    : 44.100 Hz; 16 Bit; 立体声


已抓取 CD 的 TOC

     音轨 |    起始    |    长度    |  起始扇区  |  结束扇区  
    --------------------------------------------
      1 |  0:00.00 |  4:50.60 |      0 |  21809
      2 |  4:50.60 |  4:34.12 |  21810 |  42371
      3 |  9:24.72 |  4:50.34 |  42372 |  64155
      4 | 14:15.31 |  3:23.19 |  64156 |  79399
      5 | 17:38.50 |  4:05.52 |  79400 |  97826
      6 | 21:44.27 |  5:11.60 |  97827 | 121211
      7 | 26:56.12 |  3:52.74 | 121212 | 138685
      8 | 30:49.11 |  4:32.48 | 138686 | 159133
      9 | 35:21.59 |  3:47.28 | 159134 | 176186
     10 | 39:09.12 |  4:15.31 | 176187 | 195342
     11 | 43:24.43 |  5:06.28 | 195343 | 218320
     12 | 48:30.71 |  4:02.60 | 218321 | 236530
     13 | 52:33.56 |  4:31.72 | 236531 | 256927
     14 | 57:05.53 |  3:15.17 | 256928 | 271569


范围状态及错误

已选择范围

     文件名 C:\Users\Administrator\Desktop\群星【不一样网络情歌】\未知艺术家 - 未知标题.wav

     峰值电平 98.8 %
     抓取速度 11.1 X
     范围质量 100.0 %
     复制 CRC 61C3A225
     复制成功

没有错误发生


AccurateRip 摘要

音轨  1  在数据库中不存在
音轨  2  在数据库中不存在
音轨  3  在数据库中不存在
音轨  4  在数据库中不存在
音轨  5  在数据库中不存在
音轨  6  在数据库中不存在
音轨  7  在数据库中不存在
音轨  8  在数据库中不存在
音轨  9  在数据库中不存在
音轨 10  在数据库中不存在
音轨 11  在数据库中不存在
音轨 12  在数据库中不存在
音轨 13  在数据库中不存在
音轨 14  在数据库中不存在

没有任何音轨在 AccurateRip 数据库中有记录

状态报告结尾

---- CUETools DB Plugin V2.1.6

[CTDB TOCID: cbhTbWxpwECHqMPl8LgHN_gYxCU-] found
Submit result: cbhTbWxpwECHqMPl8LgHN_gYxCU- has been confirmed
Track | CTDB Status
  1   | (1/1) Accurately ripped
  2   | (1/1) Accurately ripped
  3   | (1/1) Accurately ripped
  4   | (1/1) Accurately ripped
  5   | (1/1) Accurately ripped
  6   | (1/1) Accurately ripped
  7   | (1/1) Accurately ripped
  8   | (1/1) Accurately ripped
  9   | (1/1) Accurately ripped
10   | (1/1) Accurately ripped
11   | (1/1) Accurately ripped
12   | (1/1) Accurately ripped
13   | (1/1) Accurately ripped
14   | (1/1) Accurately ripped


------------------------------------------------------------

Exact Audio Copy V1.3 from 2. September 2016

EAC 抓取日志文件从3. 四月 2018, 13:10

未知艺术家 / 未知标题

使用驱动器  :HL-DT-STDVDRAM GH24NSC0   Adapter: 1  ID: 0

读取模式      : 可靠Secure
使用精确流     : 是
清空音频缓存    : 否
使用 C2 指示器 : 否

读取偏移校正:               : 6
读取 Lead-In 和 Lead-Out : 否
用静音填充抓取中丢失偏移的采样       : 是
去除首尾静音块               : 否
在CRC 计算中使用了空样本       : 是
已用接口                  : Win NT 及 2000 本地 Win32 接口

所用输出模式: : 内部 WAV 函数
样本格式    : 44.100 Hz; 16 Bit; 立体声


已抓取 CD 的 TOC

     音轨 |    起始    |    长度    |  起始扇区  |  结束扇区  
    --------------------------------------------
      1 |  0:00.00 |  4:50.60 |      0 |  21809
      2 |  4:50.60 |  4:34.12 |  21810 |  42371
      3 |  9:24.72 |  4:50.34 |  42372 |  64155
      4 | 14:15.31 |  3:23.19 |  64156 |  79399
      5 | 17:38.50 |  4:05.52 |  79400 |  97826
      6 | 21:44.27 |  5:11.60 |  97827 | 121211
      7 | 26:56.12 |  3:52.74 | 121212 | 138685
      8 | 30:49.11 |  4:32.48 | 138686 | 159133
      9 | 35:21.59 |  3:47.28 | 159134 | 176186
     10 | 39:09.12 |  4:15.31 | 176187 | 195342
     11 | 43:24.43 |  5:06.28 | 195343 | 218320
     12 | 48:30.71 |  4:02.60 | 218321 | 236530
     13 | 52:33.56 |  4:31.72 | 236531 | 256927
     14 | 57:05.53 |  3:15.17 | 256928 | 271569


范围状态及错误

已选择范围

     文件名 C:\Users\Administrator\Desktop\群星【不一样网络情歌】\未知艺术家 - 未知标题.wav

     峰值电平 98.8 %
     抓取速度 11.1 X
     范围质量 100.0 %
     复制 CRC 61C3A225
     复制成功

没有错误发生


AccurateRip 摘要

音轨  1  在数据库中不存在
音轨  2  在数据库中不存在
音轨  3  在数据库中不存在
音轨  4  在数据库中不存在
音轨  5  在数据库中不存在
音轨  6  在数据库中不存在
音轨  7  在数据库中不存在
音轨  8  在数据库中不存在
音轨  9  在数据库中不存在
音轨 10  在数据库中不存在
音轨 11  在数据库中不存在
音轨 12  在数据库中不存在
音轨 13  在数据库中不存在
音轨 14  在数据库中不存在

没有任何音轨在 AccurateRip 数据库中有记录

状态报告结尾

---- CUETools DB Plugin V2.1.6

[CTDB TOCID: cbhTbWxpwECHqMPl8LgHN_gYxCU-] found
Submit result: cbhTbWxpwECHqMPl8LgHN_gYxCU- has been confirmed
Track | CTDB Status
  1   | (1/1) Accurately ripped
  2   | (1/1) Accurately ripped
  3   | (1/1) Accurately ripped
  4   | (1/1) Accurately ripped
  5   | (1/1) Accurately ripped
  6   | (1/1) Accurately ripped
  7   | (1/1) Accurately ripped
  8   | (1/1) Accurately ripped
  9   | (1/1) Accurately ripped
10   | (1/1) Accurately ripped
11   | (1/1) Accurately ripped
12   | (1/1) Accurately ripped
13   | (1/1) Accurately ripped
14   | (1/1) Accurately ripped
回复

使用道具 举报

签到天数: 126 天

[LV.7]常住居民III

57

主题

363

帖子

6782

积分

中级会员

Rank: 3Rank: 3

积分
6782
威望
837
金币
4510
贡献
235
发表于 2018-4-6 05:40:23 | 显示全部楼层
谢谢主楼的辛苦制作和大家的分享
回复

使用道具 举报

签到天数: 51 天

[LV.5]常住居民I

10

主题

89

帖子

616

积分

版主

Rank: 7Rank: 7Rank: 7

积分
616
威望
48
金币
346
贡献
85

斑竹专用勋章

发表于 2018-4-6 07:13:30 | 显示全部楼层
感谢分享一手网络情歌专辑
回复

使用道具 举报

签到天数: 64 天

[LV.6]常住居民II

0

主题

277

帖子

779

积分

vip

Rank: 5Rank: 5

积分
779
威望
205
金币
92
贡献
0
发表于 2018-4-6 09:51:49 | 显示全部楼层
流传的好快啊!喜欢!!
回复

使用道具 举报

签到天数: 25 天

[LV.4]偶尔看看III

1

主题

51

帖子

351

积分

新手上路

Rank: 1

积分
351
威望
25
金币
250
贡献
0
发表于 2018-4-6 19:57:22 | 显示全部楼层
有很多没听过的歌曲和歌手,欣赏下,谢谢了!
回复

使用道具 举报

签到天数: 64 天

[LV.6]常住居民II

8

主题

375

帖子

1209

积分

新手上路

Rank: 1

积分
1209
威望
358
金币
93
贡献
25
发表于 2018-4-7 01:20:28 | 显示全部楼层
谢谢分享,这是新一代大马群星的最新中国歌曲力作,尽管谢玲玲那一代老歌星依然在出专辑,但感觉新一代的更具有时代特色
回复

使用道具 举报

签到天数: 83 天

[LV.6]常住居民II

1

主题

330

帖子

871

积分

新手上路

Rank: 1

积分
871
威望
240
金币
61
贡献
0
发表于 2018-4-8 10:56:49 | 显示全部楼层
这倒是一张新唱片歌曲,马来群星演唱,谢谢分享!!!
回复

使用道具 举报

签到天数: 110 天

[LV.6]常住居民II

1

主题

399

帖子

1391

积分

新手上路

Rank: 1

积分
1391
威望
278
金币
436
贡献
0
发表于 2018-4-8 21:37:29 | 显示全部楼层
马来版本别具一格啊!谢谢!
回复

使用道具 举报

签到天数: 120 天

[LV.7]常住居民III

21

主题

1434

帖子

4341

积分

中级会员

Rank: 3Rank: 3

积分
4341
威望
1200
金币
471
贡献
36
发表于 2018-4-10 07:23:31 | 显示全部楼层
感谢分享推介马来西亚的新一代华语歌手
回复

使用道具 举报

您需要登录后才可以回帖 登录 | 立即注册

本版积分规则

快速回复 返回顶部 返回列表