请选择 进入手机版 | 继续访问电脑版
查看: 186|回复: 12

[原创] 马来群星【魅力情歌对唱】【WAV+CUE.562 MB/DVD3.64 GB】【百度云】

[复制链接]

签到天数: 24 天

[LV.4]偶尔看看III

10

主题

49

帖子

2051

积分

注册会员

Rank: 2

积分
2051
威望
187
金币
1528
贡献
100
发表于 2018-4-9 12:31:49 | 显示全部楼层 |阅读模式
本帖最后由 人生就是戏 于 2018-4-9 13:41 编辑

专辑歌手:马来群星
专辑名称:魅力情歌对唱
出版公司:南方唱片机构有限公司
所属国家:马来西亚
专辑语言:汉语
出版时间:2017年
资源格式:CD页:WAV+CUE
           DVD页:VOB+IFO
资源大小:CD页:562 MB
           DVD页:3.64 GB
专辑曲目:
01.没有你陪伴真的好孤单........................杨克意&陈丽媚
02.森林之歌..............................................欧丽雯&关逸凡
03.恋曲1990.............................................许文友&黄晓凤
04.你是我心内的一首歌............................侯俊辉&颜愫蓉

05.昨夜的悔恨...........................................程慧雯&钟伟
06.悄悄喜欢你...........................................  天翔&利慧君
07.冬恋......................................................黄晓凤&侯俊辉
08.站在高岗上............................................湛爱玲&钟伟
09.珊瑚恋.....................................................利慧君&钟伟
10.明明白白我的心....................................吴玮琳&侯俊辉
11.等你等到我心痛....................................郭雯雯&许文友
12.榕树下....................................................刘珺儿&姚乙
13.叫你一声MY LOVE.............................  钟伟&刘珺儿
14.相逢夕阳下............................................张美玲&侯俊辉

下载地址:
游客,如果您要查看本帖隐藏内容请回复


马来群星【魅力情歌唱】封面.jpg
马来群星【魅力情歌唱】DVD.jpg
马来群星【魅力情歌唱】CD.jpg
马来群星【魅力情歌唱】封底.jpg

马来群星【魅力情歌唱】CD下载密码1.rar

130 Bytes, 下载次数: 19

售价: 30 金币  [记录]

马来群星【魅力情歌唱】DVD下载密码2.rar

134 Bytes, 下载次数: 4

售价: 30 金币  [记录]

评分

参与人数 1威望 +16 金币 +32 贡献 +16 收起 理由
教官 + 16 + 32 + 16 赞一个!

查看全部评分

回复

使用道具 举报

签到天数: 24 天

[LV.4]偶尔看看III

10

主题

49

帖子

2051

积分

注册会员

Rank: 2

积分
2051
威望
187
金币
1528
贡献
100
 楼主| 发表于 2018-4-9 12:32:40 | 显示全部楼层
Exact Audio Copy V1.3 from 2. September 2016

EAC 抓取日志文件从3. 四月 2018, 14:03

群星 / 魅力情歌对唱

使用驱动器  :HL-DT-STDVDRAM GH24NSC0   Adapter: 1  ID: 0

读取模式      : 可靠Secure
使用精确流     : 是
清空音频缓存    : 否
使用 C2 指示器 : 否

读取偏移校正:               : 6
读取 Lead-In 和 Lead-Out : 否
用静音填充抓取中丢失偏移的采样       : 是
去除首尾静音块               : 否
在CRC 计算中使用了空样本       : 是
已用接口                  : Win NT 及 2000 本地 Win32 接口

所用输出模式: : 内部 WAV 函数
样本格式    : 44.100 Hz; 16 Bit; 立体声


已抓取 CD 的 TOC

     音轨 |    起始    |    长度    |  起始扇区  |  结束扇区  
    --------------------------------------------
      1 |  0:00.00 |  4:47.42 |      0 |  21566
      2 |  4:47.42 |  3:26.55 |  21567 |  37071
      3 |  8:14.22 |  4:58.70 |  37072 |  59491
      4 | 13:13.17 |  3:22.23 |  59492 |  74664
      5 | 16:35.40 |  3:59.18 |  74665 |  92607
      6 | 20:34.58 |  3:04.44 |  92608 | 106451
      7 | 23:39.27 |  4:10.01 | 106452 | 125202
      8 | 27:49.28 |  3:26.60 | 125203 | 140712
      9 | 31:16.13 |  4:01.36 | 140713 | 158823
     10 | 35:17.49 |  3:21.45 | 158824 | 173943
     11 | 38:39.19 |  4:15.15 | 173944 | 193083
     12 | 42:54.34 |  4:17.42 | 193084 | 212400
     13 | 47:12.01 |  4:41.70 | 212401 | 233545
     14 | 51:53.71 |  3:48.58 | 233546 | 250703


范围状态及错误

已选择范围

     文件名 C:\Users\Administrator\Desktop\群星【魅力情歌对唱】\群星 - 魅力情歌对唱.wav

     峰值电平 98.8 %
     抓取速度 2.7 X
     范围质量 100.0 %
     复制 CRC 9E1B5AD9
     复制成功

没有错误发生


AccurateRip 摘要

音轨  1  在数据库中不存在
音轨  2  在数据库中不存在
音轨  3  在数据库中不存在
音轨  4  在数据库中不存在
音轨  5  在数据库中不存在
音轨  6  在数据库中不存在
音轨  7  在数据库中不存在
音轨  8  在数据库中不存在
音轨  9  在数据库中不存在
音轨 10  在数据库中不存在
音轨 11  在数据库中不存在
音轨 12  在数据库中不存在
音轨 13  在数据库中不存在
音轨 14  在数据库中不存在

没有任何音轨在 AccurateRip 数据库中有记录

状态报告结尾

---- CUETools DB Plugin V2.1.6

[CTDB TOCID: H_NANAzlXT_ZQUVDWccbD7RlRzw-] disk not present in database
Submit result: H_NANAzlXT_ZQUVDWccbD7RlRzw- has been uploaded


------------------------------------------------------------

Exact Audio Copy V1.3 from 2. September 2016

EAC 抓取日志文件从3. 四月 2018, 14:03

群星 / 魅力情歌对唱

使用驱动器  :HL-DT-STDVDRAM GH24NSC0   Adapter: 1  ID: 0

读取模式      : 可靠Secure
使用精确流     : 是
清空音频缓存    : 否
使用 C2 指示器 : 否

读取偏移校正:               : 6
读取 Lead-In 和 Lead-Out : 否
用静音填充抓取中丢失偏移的采样       : 是
去除首尾静音块               : 否
在CRC 计算中使用了空样本       : 是
已用接口                  : Win NT 及 2000 本地 Win32 接口

所用输出模式: : 内部 WAV 函数
样本格式    : 44.100 Hz; 16 Bit; 立体声


已抓取 CD 的 TOC

     音轨 |    起始    |    长度    |  起始扇区  |  结束扇区  
    --------------------------------------------
      1 |  0:00.00 |  4:47.42 |      0 |  21566
      2 |  4:47.42 |  3:26.55 |  21567 |  37071
      3 |  8:14.22 |  4:58.70 |  37072 |  59491
      4 | 13:13.17 |  3:22.23 |  59492 |  74664
      5 | 16:35.40 |  3:59.18 |  74665 |  92607
      6 | 20:34.58 |  3:04.44 |  92608 | 106451
      7 | 23:39.27 |  4:10.01 | 106452 | 125202
      8 | 27:49.28 |  3:26.60 | 125203 | 140712
      9 | 31:16.13 |  4:01.36 | 140713 | 158823
     10 | 35:17.49 |  3:21.45 | 158824 | 173943
     11 | 38:39.19 |  4:15.15 | 173944 | 193083
     12 | 42:54.34 |  4:17.42 | 193084 | 212400
     13 | 47:12.01 |  4:41.70 | 212401 | 233545
     14 | 51:53.71 |  3:48.58 | 233546 | 250703


范围状态及错误

已选择范围

     文件名 C:\Users\Administrator\Desktop\群星【魅力情歌对唱】\群星 - 魅力情歌对唱.wav

     峰值电平 98.8 %
     抓取速度 2.7 X
     范围质量 100.0 %
     复制 CRC 9E1B5AD9
     复制成功

没有错误发生


AccurateRip 摘要

音轨  1  在数据库中不存在
音轨  2  在数据库中不存在
音轨  3  在数据库中不存在
音轨  4  在数据库中不存在
音轨  5  在数据库中不存在
音轨  6  在数据库中不存在
音轨  7  在数据库中不存在
音轨  8  在数据库中不存在
音轨  9  在数据库中不存在
音轨 10  在数据库中不存在
音轨 11  在数据库中不存在
音轨 12  在数据库中不存在
音轨 13  在数据库中不存在
音轨 14  在数据库中不存在

没有任何音轨在 AccurateRip 数据库中有记录

状态报告结尾

---- CUETools DB Plugin V2.1.6

[CTDB TOCID: H_NANAzlXT_ZQUVDWccbD7RlRzw-] disk not present in database
Submit result: H_NANAzlXT_ZQUVDWccbD7RlRzw- has been uploaded
回复

使用道具 举报

签到天数: 119 天

[LV.6]常住居民II

49

主题

410

帖子

7729

积分

高级会员

Rank: 4

积分
7729
威望
1137
金币
4557
贡献
483

发帖高手勋章

发表于 2018-4-9 13:23:41 | 显示全部楼层
看曲目很喜欢,谢谢分享!
回复

使用道具 举报

签到天数: 122 天

[LV.7]常住居民III

1

主题

593

帖子

1571

积分

新手上路

Rank: 1

积分
1571
威望
386
金币
206
贡献
0
发表于 2018-4-9 19:05:20 | 显示全部楼层
钟伟和侯俊辉的歌曲都非常喜欢,多谢啦!
回复

使用道具 举报

签到天数: 114 天

[LV.6]常住居民II

2

主题

228

帖子

489

积分

新手上路

Rank: 1

积分
489
威望
107
金币
47
贡献
0
发表于 2018-4-9 22:27:49 | 显示全部楼层
收一下DVD,谢谢分享!
回复

使用道具 举报

签到天数: 117 天

[LV.6]常住居民II

21

主题

1428

帖子

4311

积分

中级会员

Rank: 3Rank: 3

积分
4311
威望
1197
金币
453
贡献
36
发表于 2018-4-10 00:05:52 | 显示全部楼层
熟悉的老歌,不熟悉的歌手,试听还不错,感谢分享!
回复

使用道具 举报

签到天数: 96 天

[LV.6]常住居民II

1

主题

371

帖子

1024

积分

新手上路

Rank: 1

积分
1024
威望
265
金币
118
贡献
5
发表于 2018-4-10 07:49:41 | 显示全部楼层
谢谢分享老歌重新的演绎
回复

使用道具 举报

签到天数: 92 天

[LV.6]常住居民II

2

主题

531

帖子

1573

积分

新手上路

Rank: 1

积分
1573
威望
426
金币
190
贡献
0
发表于 2018-4-10 09:34:52 | 显示全部楼层
虽然没有几个认识的,但演绎的确实还不错,挺好听。
回复

使用道具 举报

签到天数: 31 天

[LV.5]常住居民I

1

主题

67

帖子

140

积分

新手上路

Rank: 1

积分
140
威望
35
金币
3
贡献
0
发表于 2018-4-10 19:48:59 | 显示全部楼层
听听大马众星演唱这些歌曲,谢谢分享!
回复

使用道具 举报

签到天数: 82 天

[LV.6]常住居民II

24

主题

202

帖子

6287

积分

中级会员

Rank: 3Rank: 3

积分
6287
威望
587
金币
4647
贡献
229

发帖高手勋章

发表于 2018-4-10 20:49:35 | 显示全部楼层
很多都是经典的老歌了,
回复

使用道具 举报

您需要登录后才可以回帖 登录 | 立即注册

本版积分规则

快速回复 返回顶部 返回列表