请选择 进入手机版 | 继续访问电脑版
楼主: 痴迷往事

[原创] [提前祝数管西北狼生日嗨皮!][焦小燕 男孩女孩][整轨wav695MB][百度云]

[复制链接]

签到天数: 118 天

[LV.6]常住居民II

1

主题

445

帖子

1437

积分

新手上路

Rank: 1

积分
1437
威望
313
金币
365
贡献
1
发表于 2018-4-11 11:52:08 | 显示全部楼层
焦小燕这张罕见哦。顺祝西北狼生日快乐
回复

使用道具 举报

签到天数: 122 天

[LV.7]常住居民III

77

主题

443

帖子

6172

积分

版主

Rank: 7Rank: 7Rank: 7

积分
6172
威望
1093
金币
3201
贡献
337

斑竹专用勋章

发表于 2018-4-11 12:25:23 | 显示全部楼层
祝狼管生日快乐、天天开心!
谢往事版主分享经典盒带!
回复

使用道具 举报

签到天数: 118 天

[LV.6]常住居民II

49

主题

409

帖子

7726

积分

高级会员

Rank: 4

积分
7726
威望
1137
金币
4555
贡献
483

发帖高手勋章

发表于 2018-4-11 17:14:38 | 显示全部楼层
也祝兄弟生日快乐,明天记得吃面啊!
回复

使用道具 举报

签到天数: 121 天

[LV.7]常住居民III

1

主题

592

帖子

1568

积分

新手上路

Rank: 1

积分
1568
威望
386
金币
204
贡献
0
发表于 2018-4-11 18:22:27 | 显示全部楼层
祝西北狼生日快乐!焦小燕翻唱的蛮不错,话说她还出版过其他CD版专辑,在那个年代不简单啊。
回复

使用道具 举报

签到天数: 111 天

[LV.6]常住居民II

1

主题

173

帖子

359

积分

新手上路

Rank: 1

积分
359
威望
62
金币
62
贡献
0
发表于 2018-4-11 20:01:03 | 显示全部楼层
西北狼生日快乐,想听焦小燕的两种男孩以外
回复

使用道具 举报

签到天数: 98 天

[LV.6]常住居民II

2

主题

249

帖子

877

积分

新手上路

Rank: 1

积分
877
威望
164
金币
294
贡献
6
发表于 2018-4-11 21:10:22 | 显示全部楼层
西北狼生日快乐!听这专辑,有回到80年代的感觉
回复

使用道具 举报

签到天数: 92 天

[LV.6]常住居民II

21

主题

215

帖子

3763

积分

中级会员

Rank: 3Rank: 3

积分
3763
威望
370
金币
2727
贡献
81

发帖高手勋章

发表于 2018-4-11 21:39:27 | 显示全部楼层
焦小燕大多以翻唱成名,少女出道,感谢老师制作分享,顺祝狼管生日快乐!
回复

使用道具 举报

签到天数: 9 天

[LV.3]偶尔看看II

1

主题

104

帖子

477

积分

新手上路

Rank: 1

积分
477
威望
91
金币
191
贡献
0
发表于 2018-4-11 23:51:04 | 显示全部楼层
net3769 发表于 2018-4-10 23:42
这是我买的第一张原版磁带,后来弄丢了,前几年这张磁带罕见,费了不小劲才又收到手
当年听的入迷,后才知道大 ...

哇这么冷门的磁带您都找得到佩服佩服  这位演员纪芳玲 其中被焦小燕翻唱的快歌还真不错 至少可以伴唱弥补不足 不愧是名家制作!!! 但是哦其他的慢歌 全都音不准  估计左宏元也没辙啦 记得哪位老师说过 八九十年代大陆歌手对港台东南亚华语歌星的翻唱 其实唱功更专业 情感显得更有诚意 只是我们的后期制作有点力不从心
回复

使用道具 举报

签到天数: 88 天

[LV.6]常住居民II

9

主题

178

帖子

1663

积分

新手上路

Rank: 1

积分
1663
威望
253
金币
886
贡献
78

发帖高手勋章

发表于 2018-4-12 02:07:00 | 显示全部楼层
本帖最后由 慧点 于 2018-4-12 04:00 编辑

祝西北狼生日快乐,很难得的一盒专辑!

CUE奉上:

REM DATE 1986
REM COMMENT 痴迷往事采集制作
PERFORMER "焦小燕"
TITLE "男孩女孩[磁带]"
FILE "焦小燕男孩女孩4424.wav" WAVE
  TRACK 01 AUDIO
    TITLE "女孩"
    INDEX 00 00:00:00
    INDEX 01 00:00:32
  TRACK 02 AUDIO
    TITLE "两种男孩以外"
    INDEX 00 03:25:30
    INDEX 01 03:29:05
  TRACK 03 AUDIO
    TITLE "爱你等你"
    INDEX 00 06:06:28
    INDEX 01 06:10:02
  TRACK 04 AUDIO
    TITLE "你的微笑多美妙"
    INDEX 00 09:43:53
    INDEX 01 09:48:10
  TRACK 05 AUDIO
    TITLE "这你说过"
    INDEX 00 12:09:06
    INDEX 01 12:11:05
  TRACK 06 AUDIO
    TITLE "断弦的吉他"
    INDEX 00 16:05:45
    INDEX 01 16:09:50
  TRACK 07 AUDIO
    TITLE "既然已过去"
    INDEX 00 19:19:00
    INDEX 01 19:25:00
  TRACK 08 AUDIO
    TITLE "男孩女孩的照片"
    INDEX 00 22:33:45
    INDEX 01 22:40:50
  TRACK 09 AUDIO
    TITLE "不要停留你的脚步"
    INDEX 00 26:54:37
    INDEX 01 26:58:12
  TRACK 10 AUDIO
    TITLE "诉情怀"
    INDEX 00 30:24:15
    INDEX 01 30:27:02
  TRACK 11 AUDIO
    TITLE "点点滴滴梦回忆"
    INDEX 00 33:18:72
    INDEX 01 33:21:47
  TRACK 12 AUDIO
    TITLE "稀里哗啦"
    INDEX 00 35:44:45
    INDEX 01 35:47:55
  TRACK 13 AUDIO
    TITLE "请问你"
    INDEX 00 39:26:72
    INDEX 01 39:31:47
  TRACK 14 AUDIO
    TITLE "唱起噜啦啦"
    INDEX 00 42:36:05
    INDEX 01 42:40:15

点评

谢谢cue  发表于 2018-4-12 20:29
回复

使用道具 举报

签到天数: 21 天

[LV.4]偶尔看看III

1

主题

28

帖子

94

积分

新手上路

Rank: 1

积分
94
威望
6
金币
54
贡献
0
发表于 2018-4-12 20:29:36 | 显示全部楼层
听过她的歌曲,非常好听,值得收藏。
回复

使用道具 举报

您需要登录后才可以回帖 登录 | 立即注册

本版积分规则

快速回复 返回顶部 返回列表