请选择 进入手机版 | 继续访问电脑版
开启辅助访问 收藏本站

数字音乐论坛

 找回密码
 立即注册
查看: 255|回复: 4

[原创] [祝西北狼生日快乐][李燕萍 威揚曲藏集][APE/276MB/百度雲]

[复制链接]

签到天数: 211 天

[LV.7]常住居民III

196

主题

498

帖子

2万

积分

管理员

Rank: 9Rank: 9Rank: 9

积分
23288
威望
3052
金币
14876
贡献
1785

最佳新人活跃会员热心会员推广达人宣传达人灌水之王突出贡献优秀版主荣誉管理论坛元老

发表于 2018-4-11 20:35:47 | 显示全部楼层 |阅读模式
【專輯名稱】:李燕萍 威揚曲藏集
【專輯歌手】:李燕萍
【發行日期】:2004
【唱片公司】:威揚娛樂有限公司
【專輯語言】:國語
【檔案大小】:276MB
【音樂格式】:APE
【存放空間】:百度云
【專輯封面】: www.22090.com
【專輯曲目】:
 01.会情郎
 02.娇巧佳人
 03.绣鸳鸯
 04.送郎一朵牵牛花
 05.加多一点点
 06.山前山后百花开
 07.初一到十五
 08.情人桥
 09.送君
 10.黄昏小唱
 11.九个郎
 12.妈妈要我嫁
 13.待嫁女儿心
 14.回娘家
试听:山前山后百花开

下载地址:
游客,如果您要查看本帖隐藏内容请回复
数字音乐论坛 四季歌收藏制作 
 本音频作品严禁盗卖!


评分

已有 1 人评分威望 金币 贡献 收起 理由
教官 + 8 + 16 + 8 很给力!

总评分: 威望 + 8 金币 + 16 贡献 + 8 查看全部评分

回复

使用道具 举报

签到天数: 208 天

[LV.7]常住居民III

1

主题

733

帖子

1857

积分

新手上路

Rank: 1

积分
1857
威望
420
金币
284
贡献
0
发表于 2018-4-11 21:50:46 | 显示全部楼层
威揚曲藏系列蛮不错的,同祝西北狼生日快乐!
回复

使用道具 举报

签到天数: 211 天

[LV.7]常住居民III

196

主题

498

帖子

2万

积分

管理员

Rank: 9Rank: 9Rank: 9

积分
23288
威望
3052
金币
14876
贡献
1785

最佳新人活跃会员热心会员推广达人宣传达人灌水之王突出贡献优秀版主荣誉管理论坛元老

 楼主| 发表于 2018-4-11 22:42:24 | 显示全部楼层
  1. Exact Audio Copy V0.99 prebeta 2 from 28. July 2007

  2. EAC 抓取日志文件从12. 一月 2009, 0:32

  3. 李燕萍 /  威杨曲藏集

  4. 使用驱动器  :PLEXTOR DVDR   PX-740A   Adapter: 5  ID: 0

  5. 读取模式     : 保护
  6. 使用精确流   : 是
  7. 废除音频缓冲 : 是
  8. 使用 C2 指针 : 否

  9. 读取偏移校正                   : 0
  10. 读取 Lead-In 和 Lead-Out       : 否
  11. 用静音填充抓取中丢失偏移的采样 : 是
  12. 去除首尾静音块                 : 否
  13. 在 CRC 计算中使用了空样本      : 否
  14. 已用接口                       : Win NT 及 2000 本地 Win32 接口

  15. 所用输出格式   : Monkey's Audio 无损编码器
  16. 已选比特率     : Normal Lossless Compression
  17. 质量           : 高
  18. 添加 ID3 标签  : 是
  19. 命令行压缩器   : D:\Program Files\Monkey's Audio\MAC.exe


  20. 被抓轨 CD 的 TOC

  21.      音轨 |   开始   |   长度   | 起始扇区 | 结尾扇区
  22.     --------------------------------------------------
  23.        1  |  0:00.00 |  2:53.00 |       0  |   12974  
  24.        2  |  2:53.00 |  4:15.39 |   12975  |   32138  
  25.        3  |  7:08.39 |  2:37.20 |   32139  |   43933  
  26.        4  |  9:45.59 |  2:52.63 |   43934  |   56896  
  27.        5  | 12:38.47 |  3:07.73 |   56897  |   70994  
  28.        6  | 15:46.45 |  3:54.72 |   70995  |   88616  
  29.        7  | 19:41.42 |  2:54.69 |   88617  |  101735  
  30.        8  | 22:36.36 |  3:21.69 |  101736  |  116879  
  31.        9  | 25:58.30 |  3:33.73 |  116880  |  132927  
  32.       10  | 29:32.28 |  3:43.70 |  132928  |  149722  
  33.       11  | 33:16.23 |  2:44.41 |  149723  |  162063  
  34.       12  | 36:00.64 |  3:16.65 |  162064  |  176828  
  35.       13  | 39:17.54 |  3:13.14 |  176829  |  191317  
  36.       14  | 42:30.68 |  3:05.69 |  191318  |  205261  


  37. 范围状态及错误

  38. 已选择范围

  39.      文件名 P:\李燕萍 威杨曲藏集\李燕萍 -  威杨曲藏集.wav

  40.      峰值电平 100.0 %
  41.      范围质量 100.0 %
  42.      复制 CRC ACF28911
  43.      复制成功

  44. 没有错误发生

  45. 状态报告结尾
复制代码


回复

使用道具 举报

签到天数: 196 天

[LV.7]常住居民III

15

主题

300

帖子

6569

积分

管理员

Rank: 9Rank: 9Rank: 9

积分
6569
威望
400
金币
5287
贡献
167

最佳新人活跃会员热心会员推广达人宣传达人灌水之王突出贡献优秀版主荣誉管理论坛元老

发表于 2018-4-12 19:52:36 | 显示全部楼层
谢谢四季,真心感谢!
回复

使用道具 举报

签到天数: 204 天

[LV.7]常住居民III

28

主题

1733

帖子

5569

积分

中级会员

Rank: 3Rank: 3

积分
5569
威望
1402
金币
978
贡献
54
发表于 2018-4-16 13:30:12 | 显示全部楼层
送上迟到的祝福!感谢站长分享,试听很不错,不熟悉的歌手和唱片公司
回复

使用道具 举报

您需要登录后才可以回帖 登录 | 立即注册

本版积分规则

数字音乐论坛

Archiver|手机版|小黑屋|数字音乐论坛 ( 津ICP备09009336号-1 )

GMT+8, 2018-7-17 12:13 , Processed in 0.130329 second(s), 27 queries .

Powered by Discuz! X3.4

© 2008-2018 Comsenz Inc.|上网要文明 发言要理性 本站禁灌水

快速回复 返回顶部 返回列表