请选择 进入手机版 | 继续访问电脑版
楼主: 痴迷往事

[原创] [祝数管西北狼生日快乐!][新开封磁带][刘鸿雁 北京 大阪][整轨wav681MB][百度云]

[复制链接]

签到天数: 96 天

[LV.6]常住居民II

1

主题

371

帖子

1024

积分

新手上路

Rank: 1

积分
1024
威望
265
金币
118
贡献
5
发表于 2018-4-13 09:14:22 | 显示全部楼层
沾沾西北狼福气,又有好音乐听
回复

使用道具 举报

签到天数: 115 天

[LV.6]常住居民II

60

主题

665

帖子

5397

积分

中级会员

Rank: 3Rank: 3

积分
5397
威望
1595
金币
978
贡献
544

发帖高手勋章

发表于 2018-4-13 12:25:18 | 显示全部楼层
谢谢痴迷往事的制作辛苦了
回复

使用道具 举报

签到天数: 60 天

[LV.6]常住居民II

18

主题

476

帖子

2758

积分

注册会员

Rank: 2

积分
2758
威望
629
金币
904
贡献
120
发表于 2018-4-13 12:31:06 | 显示全部楼层
谢谢提供资源分享。
回复

使用道具 举报

签到天数: 109 天

[LV.6]常住居民II

8

主题

279

帖子

1224

积分

新手上路

Rank: 1

积分
1224
威望
239
金币
417
贡献
50
发表于 2018-4-13 16:17:09 | 显示全部楼层
TITLE "北京 大阪"
FILE "刘鸿雁 - 北京 大阪.wav" WAVE
  TRACK 01 AUDIO
    PERFORMER "刘鸿雁"
    TITLE "我要找寻"
    INDEX 01 00:00:00
  TRACK 02 AUDIO
    PERFORMER "刘鸿雁"
    TITLE "你是我的人"
    INDEX 01 03:50:34
  TRACK 03 AUDIO
    PERFORMER "刘鸿雁"
    TITLE "愿嫁汉家郎"
    INDEX 01 07:49:58
  TRACK 04 AUDIO
    PERFORMER "刘鸿雁"
    TITLE "希望在明天"
    INDEX 01 11:07:53
  TRACK 05 AUDIO
    PERFORMER "刘鸿雁"
    TITLE "我在你左右"
    INDEX 01 14:34:22
  TRACK 06 AUDIO
    PERFORMER "刘鸿雁"
    TITLE "为君愁"
    INDEX 01 17:45:67
  TRACK 07 AUDIO
    PERFORMER "刘鸿雁"
    TITLE "月夜叹"
    INDEX 01 22:18:19
  TRACK 08 AUDIO
    PERFORMER "刘鸿雁"
    TITLE "一帘幽梦"
    INDEX 01 26:07:42
  TRACK 09 AUDIO
    PERFORMER "刘鸿雁"
    TITLE "痴情"
    INDEX 01 30:08:40
  TRACK 10 AUDIO
    PERFORMER "刘鸿雁"
    TITLE "苦酒满杯"
    INDEX 01 33:39:08
  TRACK 11 AUDIO
    PERFORMER "刘鸿雁"
    TITLE "水晶玻璃杯"
    INDEX 01 37:02:30
  TRACK 12 AUDIO
    PERFORMER "刘鸿雁"
    TITLE "走马灯"
    INDEX 01 40:15:51

点评

感谢编辑  发表于 6 天前
回复

使用道具 举报

签到天数: 92 天

[LV.6]常住居民II

2

主题

531

帖子

1573

积分

新手上路

Rank: 1

积分
1573
威望
426
金币
190
贡献
0
发表于 2018-4-13 19:05:39 | 显示全部楼层
大部分都是东南亚风格的甜歌金曲,但专辑的名称从何而来。
回复

使用道具 举报

签到天数: 118 天

[LV.6]常住居民II

112

主题

321

帖子

3935

积分

版主

Rank: 7Rank: 7Rank: 7

积分
3935
威望
731
金币
1960
贡献
192

斑竹专用勋章

发表于 2018-4-13 20:57:55 | 显示全部楼层
借此贴祝西北狼大哥长命百岁永远健康天天快乐
回复

使用道具 举报

签到天数: 32 天

[LV.5]常住居民I

1

主题

61

帖子

168

积分

新手上路

Rank: 1

积分
168
威望
26
金币
55
贡献
0
发表于 2018-4-13 21:33:08 | 显示全部楼层
蹭歌!!!谢谢痴迷往事的制作分享!
回复

使用道具 举报

签到天数: 32 天

[LV.5]常住居民I

1

主题

61

帖子

168

积分

新手上路

Rank: 1

积分
168
威望
26
金币
55
贡献
0
发表于 2018-4-13 21:34:31 | 显示全部楼层
蹭歌   !!!   谢谢痴迷往事的制作分享!
回复

使用道具 举报

签到天数: 119 天

[LV.6]常住居民II

1

主题

448

帖子

1450

积分

新手上路

Rank: 1

积分
1450
威望
315
金币
371
贡献
1
发表于 6 天前 | 显示全部楼层
89年的翻唱专辑,嗓音有特色。感谢分享刘鸿雁专辑
回复

使用道具 举报

签到天数: 50 天

[LV.5]常住居民I

1

主题

124

帖子

319

积分

新手上路

Rank: 1

积分
319
威望
73
金币
49
贡献
0
发表于 6 天前 | 显示全部楼层
非常期待的一盒,谢谢版主制作分享
回复

使用道具 举报

您需要登录后才可以回帖 登录 | 立即注册

本版积分规则

快速回复 返回顶部 返回列表