开启辅助访问 收藏本站

数字音乐论坛

 找回密码
 立即注册
查看: 573|回复: 14

[原创] [台语老歌新奏-高传真音乐3][WAV/531M][百度]

[复制链接]

签到天数: 333 天

[LV.8]以坛为家I

158

主题

1062

帖子

7925

积分

超级版主

Rank: 8Rank: 8

积分
7925
威望
1460
金币
3513
贡献
420

突出贡献优秀版主荣誉管理

发表于 2018-4-20 23:36:35 | 显示全部楼层 |阅读模式
封面.JPG

唱片名称:台语老歌新奏-高传真音乐3
唱片编号:WK-003
出版登记:局版台音字第0708号

台湾总代理:华哥唱片音乐有限公司

01.流浪的马车
02.无缘的要出嫁
03.乡村的小姑娘
04.快乐的农家
05.男儿的哀歌
06.难忘的心
07.港边送别
08.秋风女人心
09.淡水暮色
10.苹果追分
11.淡水河边
12.流星之夜
13.惜别夜港边
14.夜半卖花女
15.我是行船人
16.路顶的小姐


封底.JPG
CD.JPG

游客,如果您要查看本帖隐藏内容请回复



提取码.txt (4 Bytes, 下载次数: 13, 售价: 20 金币)

评分

已有 1 人评分威望 金币 贡献 收起 理由
zjhjr + 8 + 16 + 8 淡定

总评分: 威望 + 8 金币 + 16 贡献 + 8 查看全部评分

我新发布了帖子《张美玲 -华语流行恋歌4《缘分的谎》随机2分钟片段》,快来围观吧!
回复

使用道具 举报

签到天数: 333 天

[LV.8]以坛为家I

158

主题

1062

帖子

7925

积分

超级版主

Rank: 8Rank: 8

积分
7925
威望
1460
金币
3513
贡献
420

突出贡献优秀版主荣誉管理

 楼主| 发表于 2018-4-20 23:36:44 | 显示全部楼层
Exact Audio Copy V0.99 prebeta 5 from 4. May 2009

EAC 抓取日志文件从10. 十一月 2015, 7:31

未知艺术家 / 未知标题

使用驱动器  :GNMRAF  AZWHQ3WTI   Adapter: 1  ID: 0

读取模式     : 保护
使用精确流   : 是
废除音频缓冲 : 是
使用 C2 指针 : 否

读取偏移校正                   : 0
读取 Lead-In 和 Lead-Out       : 否
用静音填充抓取中丢失偏移的采样 : 是
去除首尾静音块                 : 否
在 CRC 计算中使用了空样本      : 否
已用接口                       : Win NT 及 2000 本地 Win32 接口

所用输出格式 : 内部 WAV 函数
样本格式     : 44.100 Hz;16 Bit;立体声


被抓轨 CD 的 TOC

     音轨 |   开始   |   长度   | 起始扇区 | 结尾扇区
    --------------------------------------------------
       1  |  0:00.00 |  3:17.35 |       0  |   14809  
       2  |  3:17.35 |  3:24.20 |   14810  |   30129  
       3  |  6:41.55 |  3:15.55 |   30130  |   44809  
       4  |  9:57.35 |  3:29.60 |   44810  |   60544  
       5  | 13:27.20 |  2:59.55 |   60545  |   74024  
       6  | 16:27.00 |  3:36.00 |   74025  |   90224  
       7  | 20:03.00 |  3:34.45 |   90225  |  106319  
       8  | 23:37.45 |  3:38.25 |  106320  |  122694  
       9  | 27:15.70 |  2:55.70 |  122695  |  135889  
      10  | 30:11.65 |  3:05.05 |  135890  |  149769  
      11  | 33:16.70 |  3:34.65 |  149770  |  165884  
      12  | 36:51.60 |  3:12.45 |  165885  |  180329  
      13  | 40:04.30 |  3:22.65 |  180330  |  195544  
      14  | 43:27.20 |  3:09.00 |  195545  |  209719  
      15  | 46:36.20 |  3:15.55 |  209720  |  224399  
      16  | 49:52.00 |  2:47.25 |  224400  |  236949  


范围状态及错误

已选择范围

     文件名 I:\音乐\CD抓轨\未知艺术家 - 未知标题.wav

     峰值电平 100.0 %
     范围质量 100.0 %
     测试 CRC 4620F641
     复制 CRC 4620F641
     复制成功

没有错误发生

状态报告结尾
我新发布了帖子《张美玲 -华语流行恋歌4《缘分的谎》随机2分钟片段》,快来围观吧!
回复

使用道具 举报

签到天数: 329 天

[LV.8]以坛为家I

50

主题

726

帖子

8658

积分

金牌会员

Rank: 6Rank: 6

积分
8658
威望
1275
金币
4869
贡献
508

发帖高手勋章

发表于 2018-4-21 08:28:15 | 显示全部楼层
清脆悦耳,谢谢阿牛兄分享!
回复

使用道具 举报

签到天数: 273 天

[LV.8]以坛为家I

1

主题

787

帖子

1898

积分

新手上路

Rank: 1

积分
1898
威望
491
金币
124
贡献
5
发表于 2018-4-21 08:30:34 | 显示全部楼层
沙发欣赏好听的台语歌曲音乐,谢谢分享
回复

使用道具 举报

签到天数: 318 天

[LV.8]以坛为家I

28

主题

1944

帖子

6219

积分

中级会员

Rank: 3Rank: 3

积分
6219
威望
1479
金币
1263
贡献
54
发表于 2018-4-21 16:16:53 手机频道 | 显示全部楼层
感谢阿牛哥分享好音乐!第一次用手机登录,试听位置是一串网址,不能链接打开听音乐呢,不知道是不是我手机浏览器的原因?
回复

使用道具 举报

签到天数: 164 天

[LV.7]常住居民III

35

主题

786

帖子

5382

积分

中级会员

Rank: 3Rank: 3

积分
5382
威望
1079
金币
2183
贡献
255
发表于 2018-4-21 19:01:31 | 显示全部楼层
谢谢提供音乐资源分享。
回复

使用道具 举报

签到天数: 255 天

[LV.8]以坛为家I

1

主题

377

帖子

987

积分

新手上路

Rank: 1

积分
987
威望
120
金币
370
贡献
0
发表于 2018-4-25 08:41:20 | 显示全部楼层
感谢楼主分享台语老歌纯音乐
回复

使用道具 举报

签到天数: 213 天

[LV.7]常住居民III

1

主题

238

帖子

596

积分

新手上路

Rank: 1

积分
596
威望
24
金币
310
贡献
0
发表于 2018-4-26 20:02:46 | 显示全部楼层
蠻好聽的 謝謝分享
回复

使用道具 举报

签到天数: 191 天

[LV.7]常住居民III

25

主题

433

帖子

1694

积分

新手上路

Rank: 1

积分
1694
威望
494
金币
188
贡献
85
发表于 2018-4-28 11:52:19 | 显示全部楼层
好听,好品质,支持楼主
回复

使用道具 举报

签到天数: 333 天

[LV.8]以坛为家I

158

主题

1062

帖子

7925

积分

超级版主

Rank: 8Rank: 8

积分
7925
威望
1460
金币
3513
贡献
420

突出贡献优秀版主荣誉管理

 楼主| 发表于 2018-4-28 13:26:46 | 显示全部楼层
qp0800 发表于 2018-4-28 11:52
好听,好品质,支持楼主

更换头像!
我新发布了帖子《张美玲 -华语流行恋歌4《缘分的谎》随机2分钟片段》,快来围观吧!
回复

使用道具 举报

您需要登录后才可以回帖 登录 | 立即注册

本版积分规则

数字音乐论坛

Archiver|手机版|小黑屋|数字音乐论坛 ( 津ICP备09009336号-1 )

GMT+8, 2018-11-22 04:02 , Processed in 1.310000 second(s), 56 queries .

Powered by Discuz! X3.4

© 2008-2018 Comsenz Inc.|上网要文明 发言要理性 本站禁灌水

快速回复 返回顶部 返回列表