请选择 进入手机版 | 继续访问电脑版
开启辅助访问 收藏本站

数字音乐论坛

 找回密码
 立即注册
查看: 289|回复: 11

[原创] [甄妮 - 满山花开一片情][WAV/373MB][百度]

[复制链接]

签到天数: 102 天

[LV.6]常住居民II

368

主题

476

帖子

5万

积分

超级版主

Rank: 8Rank: 8

积分
58319
威望
6779
金币
40562
贡献
3388

斑竹专用勋章

发表于 2018-4-29 10:44:07 | 显示全部楼层 |阅读模式
IMG_1454.JPG

甄妮
滿山花開一片情
產品條碼:4714041755015
產品編號:LS7002
發行公司:海山
發行日期:2016/03/23

1.滿山花開一片情
2.愛的點滴在心頭

3.有一個女孩
4.再會吧我的愛
5.海邊的你
6.夢的去向
7.深秋楓紅
8.水悠悠
9.滴滴春雨
10.我是水你是雲
11.愛的女神
12.初戀的回味
游客,如果您要查看本帖隐藏内容请回复

Exact Audio Copy V1.0 beta 3 from 29. August 2011
EAC 抓取日志文件从2. 二月 2017, 15:04
甄妮 / 滿山花開一片情
使用驱动器  :PIONEER DVD-RW  DVR-XT11   Adapter: 1  ID: 0
读取模式      : 可靠Secure
使用精确流     : 是
清空音频缓存    : 是
使用 C2 指示器 : 否
读取偏移校正:               : 6
读取 Lead-In 和 Lead-Out : 否
用静音填充抓取中丢失偏移的采样       : 是
去除首尾静音块               : 否
在CRC 计算中使用了空样本       : 是
已用接口                  : Win NT 及 2000 本地 Win32 接口
所用输出模式: : 内部 WAV 函数
样本格式    : 44.100 Hz; 16 Bit; 立体声

已抓取 CD 的 TOC
     音轨 |    起始    |    长度    |  起始扇区  |  结束扇区  
    --------------------------------------------
      1 |  0:00.00 |  3:02.30 |      0 |  13679
      2 |  3:02.30 |  2:47.06 |  13680 |  26210
      3 |  5:49.36 |  3:05.46 |  26211 |  40131
      4 |  8:55.07 |  3:12.35 |  40132 |  54566
      5 | 12:07.42 |  3:00.28 |  54567 |  68094
      6 | 15:07.70 |  2:52.14 |  68095 |  81008
      7 | 18:00.09 |  2:25.74 |  81009 |  91957
      8 | 20:26.08 |  3:11.69 |  91958 | 106351
      9 | 23:38.02 |  3:33.37 | 106352 | 122363
     10 | 27:11.39 |  2:39.39 | 122364 | 134327
     11 | 29:51.03 |  3:10.39 | 134328 | 148616
     12 | 33:01.42 |  3:04.32 | 148617 | 162448

范围状态及错误
已选择范围
     文件名 C:\Users\hp\Desktop\甄妮\甄妮 - 滿山花開一片情.wav
     峰值电平 100.0 %
     抓取速度 2.5 X
     范围质量 99.9 %
     复制 CRC 2A57FC14
     复制成功
没有错误发生

AccurateRip 摘要

音轨  1  在数据库中不存在
音轨  2  在数据库中不存在
音轨  3  在数据库中不存在
音轨  4  在数据库中不存在
音轨  5  在数据库中不存在
音轨  6  在数据库中不存在
音轨  7  在数据库中不存在
音轨  8  在数据库中不存在
音轨  9  在数据库中不存在
音轨 10  在数据库中不存在
音轨 11  在数据库中不存在
音轨 12  在数据库中不存在

没有任何音轨在 AccurateRip 数据库中有记录
状态报告结尾

IMG_1455.JPG
IMG_1456.JPG

甄妮《满山花开一片情》密码.rar

140 Bytes, 下载次数: 20

售价: 20 金币  [记录]

回复

使用道具 举报

签到天数: 213 天

[LV.7]常住居民III

1

主题

738

帖子

1872

积分

新手上路

Rank: 1

积分
1872
威望
420
金币
294
贡献
0
发表于 2018-4-29 14:26:47 | 显示全部楼层
满山花开一片情,好浪漫的感觉,下载来听。
回复

使用道具 举报

签到天数: 108 天

[LV.6]常住居民II

29

主题

632

帖子

4868

积分

中级会员

Rank: 3Rank: 3

积分
4868
威望
884
金币
2267
贡献
201
发表于 2018-4-29 15:45:12 | 显示全部楼层
谢谢提供【珍妮】的专辑。
回复

使用道具 举报

签到天数: 215 天

[LV.7]常住居民III

72

主题

793

帖子

1万

积分

贵宾

Rank: 7Rank: 7Rank: 7

积分
13258
威望
1622
金币
8671
贡献
540

贵宾专用勋章

发表于 2018-4-30 08:01:40 | 显示全部楼层
像甄妮这样一直活跃在歌坛的老歌手,现在已经很少了。
我新发布了帖子《[群星-神州歌坛十二星演唱会(一)][WAV/399MB][百度]》,快来围观吧!
回复

使用道具 举报

签到天数: 191 天

[LV.7]常住居民III

1

主题

718

帖子

1820

积分

新手上路

Rank: 1

积分
1820
威望
498
金币
106
贡献
0
发表于 2018-4-30 21:01:01 | 显示全部楼层
甄妮1977年的专辑,非常好听的一张,推荐:水悠悠、深秋枫红,台版和海外版曲目不一样,海外版补拆成了两张专辑
回复

使用道具 举报

签到天数: 182 天

[LV.7]常住居民III

1

主题

670

帖子

1737

积分

新手上路

Rank: 1

积分
1737
威望
487
金币
85
贡献
8
发表于 2018-5-2 08:45:55 | 显示全部楼层
试听曲还不错,感谢分享她的歌
回复

使用道具 举报

签到天数: 22 天

[LV.4]偶尔看看III

1

主题

99

帖子

405

积分

禁止访问

积分
405
威望
64
金币
178
贡献
0
发表于 2018-5-4 14:45:43 | 显示全部楼层
提示: 作者被禁止或删除 内容自动屏蔽
回复

使用道具 举报

签到天数: 108 天

[LV.6]常住居民II

29

主题

632

帖子

4868

积分

中级会员

Rank: 3Rank: 3

积分
4868
威望
884
金币
2267
贡献
201
发表于 2018-5-14 16:51:06 | 显示全部楼层
封底少印两首歌。
回复

使用道具 举报

签到天数: 98 天

[LV.6]常住居民II

8

主题

184

帖子

623

积分

新手上路

Rank: 1

积分
623
威望
176
金币
52
贡献
35
发表于 2018-6-7 22:17:24 手机频道 | 显示全部楼层
Junyoo 发表于 2018-4-30 21:01
甄妮1977年的专辑,非常好听的一张,推荐:水悠悠、深秋枫红,台版和海外版曲目不一样,海外版补拆成了两张 ...

这张是海山时期专辑,深秋枫红这首好听!
回复

使用道具 举报

签到天数: 180 天

[LV.7]常住居民III

1

主题

267

帖子

740

积分

新手上路

Rank: 1

积分
740
威望
81
金币
311
贡献
0
发表于 2018-6-7 23:01:25 | 显示全部楼层
难得的一张少见的专辑,谢谢超版~
回复

使用道具 举报

您需要登录后才可以回帖 登录 | 立即注册

本版积分规则

数字音乐论坛

Archiver|手机版|小黑屋|数字音乐论坛 ( 津ICP备09009336号-1 )

GMT+8, 2018-7-21 18:00 , Processed in 0.165308 second(s), 30 queries .

Powered by Discuz! X3.4

© 2008-2018 Comsenz Inc.|上网要文明 发言要理性 本站禁灌水

快速回复 返回顶部 返回列表