请选择 进入手机版 | 继续访问电脑版

数字音乐论坛

 找回密码
 立即注册
查看: 144|回复: 9

[原创] [華視大樂團演奏《立體高傳眞 12》][WAV/555MB][百度]

[复制链接]

签到天数: 160 天

[LV.7]常住居民III

98

主题

717

帖子

4933

积分

超级版主

Rank: 8Rank: 8

积分
4933
威望
1106
金币
1693
贡献
301

突出贡献优秀版主荣誉管理

发表于 2018-5-13 18:20:43 | 显示全部楼层 |阅读模式


祝母親快樂!

timg (8).jpg

1.JPG


唱片名稱:立體高傳眞 12

唱片公司:興來唱片有限公司

唱片編號:SL-5024

發行時間:1991.11


華視大樂團演奏


01.流浪之歌

02.媽媽請您也保重


03.舊皮箱流浪兒

04.星星知我心

05.快樂的碳礦夫

06.車頂美姑娘

07.流浪到台北

08.素蘭小姐要出嫁

09.再會呀港都

10.落大雨彼一日

11.我是行船人

12.總有一天等到你

13.又是細雨

14.我的一顆心

15.姑娘十八一朵花

16.往事難追憶

17.我需要安慰



2.JPG

3.JPG


游客,如果您要查看本帖隐藏内容请回复


提取碼.txt (4 Bytes, 下载次数: 10, 售价: 28 金币)

评分

参与人数 1威望 +8 金币 +16 贡献 +8 收起 理由
教官 + 8 + 16 + 8 很给力!

查看全部评分

我新发布了帖子《[華視大樂團演奏《立體高傳眞 12》][WAV/555MB][百度]》,快来围观吧!
回复

使用道具 举报

签到天数: 160 天

[LV.7]常住居民III

98

主题

717

帖子

4933

积分

超级版主

Rank: 8Rank: 8

积分
4933
威望
1106
金币
1693
贡献
301

突出贡献优秀版主荣誉管理

 楼主| 发表于 2018-5-13 18:21:40 | 显示全部楼层
Exact Audio Copy V0.99 prebeta 5 from 4. May 2009

EAC 抓取日誌文件從27. 十二月 2014, 9:10

未知藝術家 / 未知標題

使用驅動器  :TSSTcorpCDDVDW TS-U633A   Adapter: 0  ID: 0

讀取模式     : 保護
使用精確流   : 是
廢除音頻緩沖 : 是
使用 C2 指針 : 否

讀取偏移校正                   : 0
讀取 Lead-In 和 Lead-Out       : 否
用靜音填充抓取中丟失偏移的采樣 : 是
去除首尾靜音塊                 : 否
在 CRC 計算中使用了空樣本      : 是
已用接口                       : Win NT 及 2000 本地 Win32 接口

所用輸出格式 : 內部 WAV 函數
樣本格式     : 44.100 Hz;16 Bit;立體聲


被抓軌 CD 的 TOC

     音軌 |   開始   |   長度   | 起始扇區 | 結尾扇區
    --------------------------------------------------
       1  |  0:00.00 |  3:38.20 |       0  |   16369  
       2  |  3:38.20 |  3:28.70 |   16370  |   32039  
       3  |  7:07.15 |  3:06.32 |   32040  |   46021  
       4  | 10:13.47 |  4:17.50 |   46022  |   65346  
       5  | 14:31.22 |  2:35.10 |   65347  |   76981  
       6  | 17:06.32 |  3:10.30 |   76982  |   91261  
       7  | 20:16.62 |  3:56.00 |   91262  |  108961  
       8  | 24:12.62 |  2:45.08 |  108962  |  121344  
       9  | 26:57.70 |  3:19.50 |  121345  |  136319  
      10  | 30:17.45 |  3:45.42 |  136320  |  153236  
      11  | 34:03.12 |  3:03.28 |  153237  |  166989  
      12  | 37:06.40 |  3:14.65 |  166990  |  181604  
      13  | 40:21.30 |  3:11.40 |  181605  |  195969  
      14  | 43:32.70 |  2:38.57 |  195970  |  207876  
      15  | 46:11.52 |  3:03.15 |  207877  |  221616  
      16  | 49:14.67 |  3:05.08 |  221617  |  235499  
      17  | 52:20.00 |  2:40.47 |  235500  |  247546  


範圍狀態及錯誤

已選擇範圍

     文件名 D:\新建文件夾 (2)\未知藝術家 - 未知標題.wav

     峰值電平 92.0 %
     範圍質量 99.8 %
     復制 CRC 52974374
     復制成功

沒有錯誤發生

狀態報告結尾
我新发布了帖子《[華視大樂團演奏《立體高傳眞 12》][WAV/555MB][百度]》,快来围观吧!
回复

使用道具 举报

签到天数: 102 天

[LV.6]常住居民II

26

主题

234

帖子

6898

积分

中级会员

Rank: 3Rank: 3

积分
6898
威望
643
金币
5089
贡献
249

发帖高手勋章

发表于 2018-5-13 20:37:34 | 显示全部楼层
经典的休闲音乐
回复

使用道具 举报

签到天数: 128 天

[LV.7]常住居民III

1

主题

455

帖子

1144

积分

新手上路

Rank: 1

积分
1144
威望
315
金币
54
贡献
5
发表于 2018-5-14 07:47:56 | 显示全部楼层
以小号和中音号为主旋律,很好听,谢谢分享
回复

使用道具 举报

签到天数: 40 天

[LV.5]常住居民I

1

主题

116

帖子

453

积分

新手上路

Rank: 1

积分
453
威望
73
金币
191
贡献
0
发表于 2018-5-15 15:40:09 | 显示全部楼层
楼主辛苦。非常好听曲子。谢谢分享。
回复

使用道具 举报

签到天数: 47 天

[LV.5]常住居民I

1

主题

84

帖子

162

积分

新手上路

Rank: 1

积分
162
威望
36
金币
6
贡献
0
发表于 2018-5-18 08:57:48 | 显示全部楼层
非常优美的音乐,很喜欢,谢谢分享。
回复

使用道具 举报

签到天数: 66 天

[LV.6]常住居民II

29

主题

170

帖子

2671

积分

注册会员

Rank: 2

积分
2671
威望
420
金币
1539
贡献
122

发帖高手勋章

发表于 6 天前 | 显示全部楼层
同喜这种风格的音乐演奏曲,早期的音质比较好!
回复

使用道具 举报

签到天数: 34 天

[LV.5]常住居民I

3

主题

107

帖子

283

积分

新手上路

Rank: 1

积分
283
威望
50
金币
71
贡献
5
发表于 5 天前 | 显示全部楼层
这类音乐听着舒服,立体感很强,值得收藏

谢谢分享!
回复

使用道具 举报

签到天数: 30 天

[LV.5]常住居民I

18

主题

137

帖子

1120

积分

新手上路

Rank: 1

积分
1120
威望
276
金币
373
贡献
58
发表于 4 天前 | 显示全部楼层
效果很好,值得收藏,耳朵有福了,谢谢分享
回复

使用道具 举报

签到天数: 2 天

[LV.1]初来乍到

1

主题

35

帖子

136

积分

新手上路

Rank: 1

积分
136
威望
32
金币
37
贡献
0
发表于 昨天 10:51 | 显示全部楼层
好专辑!以前听过的,非常棒,谢谢分享!
回复

使用道具 举报

您需要登录后才可以回帖 登录 | 立即注册

本版积分规则

数字音乐论坛

Archiver|手机版|小黑屋|数字音乐论坛 ( 津ICP备09009336号-1 )

GMT+8, 2018-5-27 13:26 , Processed in 0.140176 second(s), 30 queries .

Powered by Discuz! X3.4

© 2008-2018 Comsenz Inc.|上网要文明 发言要理性 本站禁灌水

快速回复 返回顶部 返回列表