开启辅助访问 收藏本站

数字音乐论坛

 找回密码
 立即注册
查看: 780|回复: 21

[原创] 灵丽【这雨很美丽】专缉 无损/ WAV /445MB [百度]

[复制链接]

签到天数: 43 天

[LV.5]常住居民I

9

主题

86

帖子

1815

积分

新手上路

Rank: 1

积分
1815
威望
183
金币
1285
贡献
68
发表于 2018-5-15 16:16:06 | 显示全部楼层 |阅读模式
本帖最后由 晴空 于 2018-5-15 21:01 编辑
封面.png
歌手:灵丽
专缉:这雨很美丽
中国国际广播音像出版社出版
广东文化艺术公司娱乐制作分公司制作
潮州市新乐影音公司印制发行
策划 :郭瑞   
监制 :李卫红
编缉:封小民
制作:韩乘光
编曲MIDI  余亦五 韩乘光
演奏:歌城唱片乐团
合声演唱:钟慧嫦  常安等
录音 :石海光 杨刚
录音软件:Adobe Audition3.0
格式:WAV
文件大小:445MB


A面
01 这雨很美丽
02 把谁盼望
03 快乐的女孩
04 采莲女
05 陪伴我身旁
06 想你在每一个星夜里
B面
07 让爱重新开头
08 不知不觉
09 俏妹引进情郞来
10 一朵花中的云
11 不再原谅你
12 一生一世想念你


A$(QFER8XB7TS8J(F3OCVQ9_副本.png
1526368476(1).png

1526369351(1).png

这雨很美丽.zip (167 Bytes, 下载次数: 13, 售价: 20 金币)

评分

已有 1 人评分威望 金币 贡献 收起 理由
WSAN + 8 + 16 + 8

总评分: 威望 + 8 金币 + 16 贡献 + 8 查看全部评分

回复

使用道具 举报

签到天数: 245 天

[LV.8]以坛为家I

1

主题

306

帖子

692

积分

新手上路

Rank: 1

积分
692
威望
60
金币
266
贡献
0
发表于 2018-5-15 17:55:52 | 显示全部楼层
这个女孩子的歌声和杨钰莹好像,一样的甜美!
回复

使用道具 举报

签到天数: 275 天

[LV.8]以坛为家I

150

主题

976

帖子

7866

积分

超级版主

Rank: 8Rank: 8

积分
7866
威望
1426
金币
3611
贡献
417

突出贡献优秀版主荣誉管理

发表于 2018-5-15 19:22:35 | 显示全部楼层
TITLE "这雨很美丽"
FILE "灵丽 这雨很美丽.wav" WAVE
  TRACK 01 AUDIO
    PERFORMER "灵丽"
    TITLE "A-01.这丽很美丽"
    INDEX 01 00:00:00
  TRACK 02 AUDIO
    PERFORMER "灵丽"
    TITLE "A-02.把谁盼望"
    INDEX 01 04:06:14
  TRACK 03 AUDIO
    PERFORMER "灵丽"
    TITLE "A-03.快乐的女孩"
    INDEX 01 07:38:62
  TRACK 04 AUDIO
    PERFORMER "灵丽"
    TITLE "A-04.采莲女"
    INDEX 01 11:06:10
  TRACK 05 AUDIO
    PERFORMER "灵丽"
    TITLE "A-05.陪伴我身旁"
    INDEX 01 15:58:66
  TRACK 06 AUDIO
    PERFORMER "灵丽"
    TITLE "A-06.想你在每一个深夜里"
    INDEX 01 19:18:50
  TRACK 07 AUDIO
    PERFORMER "灵丽"
    TITLE "B-01.让爱重新开头"
    INDEX 01 22:38:10
  TRACK 08 AUDIO
    PERFORMER "灵丽"
    TITLE "B-02.不知不觉"
    INDEX 01 26:55:67
  TRACK 09 AUDIO
    PERFORMER "灵丽"
    TITLE "B-03.俏妹引进情郞来"
    INDEX 01 30:32:68
  TRACK 10 AUDIO
    PERFORMER "灵丽"
    TITLE "B-04.一朵花中的云"
    INDEX 01 34:26:50
  TRACK 11 AUDIO
    PERFORMER "灵丽"
    TITLE "B-05.不再原谅你"
    INDEX 01 37:41:21
  TRACK 12 AUDIO
    PERFORMER "灵丽"
    TITLE "B-06.一生一世想念你"
    INDEX 01 41:10:02

点评

听听老歌,感谢编辑CUE  发表于 2018-5-16 20:30
回复

使用道具 举报

签到天数: 258 天

[LV.8]以坛为家I

62

主题

906

帖子

5538

积分

中级会员

Rank: 3Rank: 3

积分
5538
威望
1726
金币
598
贡献
562

发帖高手勋章

发表于 2018-5-15 21:11:24 | 显示全部楼层
谢谢楼主的制作分享灵丽的专辑
回复

使用道具 举报

签到天数: 246 天

[LV.8]以坛为家I

10

主题

474

帖子

1436

积分

新手上路

Rank: 1

积分
1436
威望
289
金币
334
贡献
50
发表于 2018-5-15 21:43:11 | 显示全部楼层
声音像杨钰莹  都是我很喜欢的熟悉甜歌路线  谢谢楼主分享
回复

使用道具 举报

签到天数: 14 天

[LV.3]偶尔看看II

1

主题

27

帖子

47

积分

新手上路

Rank: 1

积分
47
威望
12
金币
-4
贡献
0
发表于 2018-5-15 22:37:10 | 显示全部楼层
感谢楼主分享,谢谢

评分

已有 1 人评分金币 收起 理由
WSAN -20

总评分: 金币 -20 查看全部评分

回复

使用道具 举报

签到天数: 239 天

[LV.7]常住居民III

2

主题

436

帖子

1113

积分

新手上路

Rank: 1

积分
1113
威望
209
金币
253
贡献
6
发表于 2018-5-16 01:53:12 | 显示全部楼层
灵丽《这雨很美丽》收过CD版,不知有 灵丽〖偷偷望你一眼〗无损?
回复

使用道具 举报

签到天数: 106 天

[LV.6]常住居民II

1

主题

383

帖子

1538

积分

新手上路

Rank: 1

积分
1538
威望
266
金币
622
贡献
1
发表于 2018-5-16 07:45:15 | 显示全部楼层
本帖最后由 人人人 于 2018-5-16 07:46 编辑

当年灵丽出版了不少甜歌专辑,可是当时没有太大的影响力,前不及李玲玉 任静 肖雅等歌手,后不比杨钰莹,所以没有红起来,其实她唱的也不错的,感谢分享!
回复

使用道具 举报

签到天数: 269 天

[LV.8]以坛为家I

1

主题

422

帖子

1630

积分

新手上路

Rank: 1

积分
1630
威望
160
金币
886
贡献
2
发表于 2018-5-16 08:31:06 | 显示全部楼层
剩音也很甜不知道嫌在怎么样
回复

使用道具 举报

签到天数: 266 天

[LV.8]以坛为家I

1

主题

723

帖子

2069

积分

注册会员

Rank: 2

积分
2069
威望
423
金币
499
贡献
1
发表于 2018-5-16 11:05:26 | 显示全部楼层
灵丽声音甜美,作品也很动听。感谢制作分享
回复

使用道具 举报

您需要登录后才可以回帖 登录 | 立即注册

本版积分规则

数字音乐论坛

Archiver|手机版|小黑屋|数字音乐论坛 ( 津ICP备09009336号-1 )

GMT+8, 2018-9-19 12:59 , Processed in 1.076000 second(s), 33 queries .

Powered by Discuz! X3.4

© 2008-2018 Comsenz Inc.|上网要文明 发言要理性 本站禁灌水

快速回复 返回顶部 返回列表