开启辅助访问 收藏本站

数字音乐论坛

 找回密码
 立即注册
查看: 708|回复: 21

[原创] [方文琳 - 醉心集][WAV/640MB][百度]

[复制链接]

签到天数: 102 天

[LV.6]常住居民II

368

主题

476

帖子

5万

积分

超级版主

Rank: 8Rank: 8

积分
59474
威望
6779
金币
41722
贡献
3388

斑竹专用勋章

发表于 2018-5-22 20:25:07 | 显示全部楼层 |阅读模式
本帖最后由 zjhjr 于 2018-5-22 20:28 编辑

IMG_4770.JPG

方文琳 - 醉心集

01.埋葬愛情
02.撥開我的手
03.朋友
04.不能不執著
05.你收到了嗎
06.第一次送我回家
07.重新愛過
08.泡沫戀情
09.留給你我最初的愛
10.舊情綿綿
11.隨緣聚首
12.送我回家
13.百分之百的男孩

14.不一樣的女孩
15.情深緣淺
16.飛揚的青春
游客,如果您要查看本帖隐藏内容请回复


IMG_4771.JPG
IMG_4772.JPG

方文琳《醉心集》密码.rar

126 Bytes, 下载次数: 25

售价: 20 金币  [记录]

评分

已有 1 人评分威望 金币 贡献 收起 理由
WSAN + 8 + 16 + 8

总评分: 威望 + 8 金币 + 16 贡献 + 8 查看全部评分

回复

使用道具 举报

签到天数: 102 天

[LV.6]常住居民II

368

主题

476

帖子

5万

积分

超级版主

Rank: 8Rank: 8

积分
59474
威望
6779
金币
41722
贡献
3388

斑竹专用勋章

 楼主| 发表于 2018-5-22 20:27:14 | 显示全部楼层
Exact Audio Copy V1.3 from 2. September 2016

EAC 抓取日志文件从14. 五月 2018, 20:15

方文琳 / 方文琳 - 醉心集

使用驱动器  :PIONEER DVD-RW  DVR-XT11   Adapter: 0  ID: 0

读取模式      : 可靠Secure
使用精确流     : 是
清空音频缓存    : 是
使用 C2 指示器 : 否

读取偏移校正:               : 6
读取 Lead-In 和 Lead-Out : 否
用静音填充抓取中丢失偏移的采样       : 是
去除首尾静音块               : 否
在CRC 计算中使用了空样本       : 是
已用接口                  : 已安装外部 ASPI 接口

所用输出模式: : 内部 WAV 函数
样本格式    : 44.100 Hz; 16 Bit; 立体声


已抓取 CD 的 TOC

     音轨 |    起始    |    长度    |  起始扇区  |  结束扇区  
    --------------------------------------------
      1 |  0:00.00 |  3:49.15 |      0 |  17189
      2 |  3:49.15 |  2:35.60 |  17190 |  28874
      3 |  6:25.00 |  4:33.30 |  28875 |  49379
      4 | 10:58.30 |  3:33.00 |  49380 |  65354
      5 | 14:31.30 |  3:26.45 |  65355 |  80849
      6 | 17:58.00 |  4:14.30 |  80850 |  99929
      7 | 22:12.30 |  4:50.15 |  99930 | 121694
      8 | 27:02.45 |  4:11.30 | 121695 | 140549
      9 | 31:14.00 |  4:00.60 | 140550 | 158609
     10 | 35:14.60 |  3:29.30 | 158610 | 174314
     11 | 38:44.15 |  3:13.45 | 174315 | 188834
     12 | 41:57.60 |  3:55.60 | 188835 | 206519
     13 | 45:53.45 |  4:02.60 | 206520 | 224729
     14 | 49:56.30 |  3:37.30 | 224730 | 241034
     15 | 53:33.60 |  4:53.15 | 241035 | 263024
     16 | 58:27.00 |  3:33.15 | 263025 | 279014


范围状态及错误

已选择范围

     文件名 C:\Users\hp\Desktop\zjhjr\方文琳\方文琳 - 方文琳 - 醉心集.wav

     峰值电平 99.9 %
     抓取速度 4.6 X
     范围质量 100.0 %
     复制 CRC 5124D36A
     复制成功

没有错误发生


AccurateRip 摘要

音轨  1  在数据库中不存在
音轨  2  在数据库中不存在
音轨  3  在数据库中不存在
音轨  4  在数据库中不存在
音轨  5  在数据库中不存在
音轨  6  在数据库中不存在
音轨  7  在数据库中不存在
音轨  8  在数据库中不存在
音轨  9  在数据库中不存在
音轨 10  在数据库中不存在
音轨 11  在数据库中不存在
音轨 12  在数据库中不存在
音轨 13  在数据库中不存在
音轨 14  在数据库中不存在
音轨 15  在数据库中不存在
音轨 16  在数据库中不存在

没有任何音轨在 AccurateRip 数据库中有记录

状态报告结尾

---- CUETools DB Plugin V2.1.6

[CTDB TOCID: ESSJxdknXkd8gs9iFPJlHL9755w-] disk not present in database
Submit result: ESSJxdknXkd8gs9iFPJlHL9755w- has been uploaded

回复

使用道具 举报

签到天数: 271 天

[LV.8]以坛为家I

1

主题

809

帖子

2096

积分

注册会员

Rank: 2

积分
2096
威望
428
金币
431
贡献
0
发表于 2018-5-22 20:41:29 | 显示全部楼层
方文琳的歌儿有点象杨林,也挺好听的,谢谢了!
回复

使用道具 举报

签到天数: 274 天

[LV.8]以坛为家I

72

主题

878

帖子

1万

积分

贵宾

Rank: 7Rank: 7Rank: 7

积分
13952
威望
1648
金币
9228
贡献
540

贵宾专用勋章

发表于 2018-5-22 21:41:49 | 显示全部楼层
青青的小萍果 发表于 2018-5-22 20:41
方文琳的歌儿有点象杨林,也挺好听的,谢谢了!

方文琳和杨林长相和歌路近似,方文琳才推出第一张个人专辑《不一样的女孩》。
我新发布了帖子《[群星-神州歌坛十二星演唱会(一)][WAV/399MB][百度]》,快来围观吧!
回复

使用道具 举报

签到天数: 271 天

[LV.8]以坛为家I

1

主题

809

帖子

2096

积分

注册会员

Rank: 2

积分
2096
威望
428
金币
431
贡献
0
发表于 2018-5-22 21:49:22 | 显示全部楼层
春花秋月 发表于 2018-5-22 21:41
方文琳和杨林长相和歌路近似,方文琳才推出第一张个人专辑《不一样的女孩》。

感觉方文琳选的歌曲不及杨林的有特点,杨林的把心留住,玻璃心等等,当时真是大放异彩。
回复

使用道具 举报

签到天数: 167 天

[LV.7]常住居民III

11

主题

337

帖子

1173

积分

新手上路

Rank: 1

积分
1173
威望
223
金币
370
贡献
20
发表于 2018-5-23 08:53:43 | 显示全部楼层
方文琳的声音还是不错的,感谢分享!
回复

使用道具 举报

签到天数: 75 天

[LV.6]常住居民II

1

主题

145

帖子

320

积分

新手上路

Rank: 1

积分
320
威望
66
金币
43
贡献
0
发表于 2018-5-23 09:48:26 | 显示全部楼层
没听过方文琳的歌,第一次听到,很有感觉。谢谢分享。
回复

使用道具 举报

签到天数: 140 天

[LV.7]常住居民III

25

主题

341

帖子

1526

积分

新手上路

Rank: 1

积分
1526
威望
453
金币
194
贡献
85
发表于 2018-5-23 10:44:29 | 显示全部楼层
好精致的封面,纯纯的声音,喜欢,谢谢分享
回复

使用道具 举报

签到天数: 119 天

[LV.6]常住居民II

5

主题

174

帖子

370

积分

新手上路

Rank: 1

积分
370
威望
45
金币
106
贡献
0
发表于 2018-5-23 14:26:52 | 显示全部楼层
听过方文琳《不一样的女孩》这张专辑,尤其喜欢那首:情深缘浅
谢谢楼主分享
回复

使用道具 举报

签到天数: 99 天

[LV.6]常住居民II

1

主题

457

帖子

1309

积分

禁止访问

积分
1309
威望
348
金币
156
贡献
0
发表于 2018-5-23 17:03:38 | 显示全部楼层

才发现,方文琳是一个大美女啊
以前真是疏忽了哦
漂亮
回复

使用道具 举报

您需要登录后才可以回帖 登录 | 立即注册

本版积分规则

数字音乐论坛

Archiver|手机版|小黑屋|数字音乐论坛 ( 津ICP备09009336号-1 )

GMT+8, 2018-9-19 09:42 , Processed in 1.082000 second(s), 32 queries .

Powered by Discuz! X3.4

© 2008-2018 Comsenz Inc.|上网要文明 发言要理性 本站禁灌水

快速回复 返回顶部 返回列表