开启辅助访问 天气预报 收藏本站

数字音乐论坛

 找回密码
 立即注册
快捷导航
查看: 1829|回复: 27

黎娅【 女郞】祼带/无损 WAV+CUE整轨 409MB[百度]

[复制链接]

签到天数: 55 天

[LV.5]常住居民I

9

主题

120

帖子

1697

积分

新手上路

Rank: 1

积分
1697
威望
205
金币
1089
贡献
68
发表于 2018-6-5 01:46:58 | 显示全部楼层 |阅读模式
歌手:黎娅
专缉名称:女郞
湖北音像艺术出版社出版
广东惠州西湖荔溥风清
夏里巴录音带厂印制发行
磁带编号:EAV8865
录音软件:Adobe Audition3.0
格式:WAV+CUE
文件大小:409MB
晴空制作:2018/06/05
封面来源于网络:
1528135789(1).png
A面
01-盼
02-想把情人留
03-不敢谈爱情
04-凋落以后
05-别问我
06-望着天空的女孩
B面
07-爱要让他知道
08-错误的恋曲
09-海浪泪痕
10-如果还有明天
11-单身女郎
12-雨中的孤雁

PERFORMER"黎娅"
TITLE"女郞"
FILE "黎娅【女郎】 .wav" WAVE
  TRACK 01 AUDIO
PERFORMER "黎娅"
  TITLE "01-盼"
    INDEX 01 00:00:00
    INDEX 02 04:05:13
  TRACK 02 AUDIO
PERFORMER "黎娅"
  TITLE "02-想把情人留"
    INDEX 01 04:09:37
    INDEX 02 07:21:22
  TRACK 03 AUDIO
PERFORMER "黎娅"
  TITLE "03-不敢谈爱情"
    INDEX 01 07:25:50
    INDEX 02 10:55:73
  TRACK 04 AUDIO
PERFORMER "黎娅"
  TITLE "04-凋落以后"
    INDEX 01 10:59:63
    INDEX 02 13:54:04
  TRACK 05 AUDIO
PERFORMER "黎娅"
  TITLE "05-别问我"
    INDEX 01 13:59:37
    INDEX 02 17:49:66
  TRACK 06 AUDIO
PERFORMER "黎娅"
  TITLE "06-望着天空的女孩"
    INDEX 01 17:53:64
    INDEX 02 20:27:18
  TRACK 07 AUDIO
PERFORMER "黎娅"
  TITLE "07-爱要让他知道"
    INDEX 01 20:30:41
    INDEX 02 23:39:74
  TRACK 08 AUDIO
PERFORMER "黎娅"
  TITLE "08-错误的恋曲"
    INDEX 01 23:44:61
    INDEX 02 27:30:23
  TRACK 09 AUDIO
PERFORMER "黎娅"
  TITLE "09-海浪泪痕"
    INDEX 01 27:35:21
    INDEX 02 30:25:31
  TRACK 10 AUDIO
PERFORMER "黎娅"
  TITLE "10-如果还有明天"
    INDEX 01 30:29:04
    INDEX 02 34:05:59
  TRACK 11 AUDIO
PERFORMER "黎娅"
  TITLE "11-单身女郎"
    INDEX 01 34:09:65
    INDEX 02 37:12:23
  TRACK 12 AUDIO
PERFORMER "黎娅"
  TITLE "12-雨中的孤雁"
    INDEX 01 37:15:24
    INDEX 02 40:27:32

游客,如果您要查看本帖隐藏内容请回复

黎娅 女郞.zip (176 Bytes, 下载次数: 35, 售价: 20 金币)
0180604232428.jpg
20180604232417.jpg

评分

参与人数 1威望 +8 金币 +16 贡献 +8 收起 理由
WSAN + 8 + 16 + 8 很给力!

查看全部评分

回复

使用道具 举报

签到天数: 601 天

[LV.9]以坛为家II

2

主题

901

帖子

2684

积分

注册会员

Rank: 2

积分
2684
威望
307
金币
1167
贡献
2
QQ
发表于 2018-6-5 05:07:40 | 显示全部楼层
都是翻唱的甜歌喜欢谢谢分享
老歌
回复

使用道具 举报

签到天数: 606 天

[LV.9]以坛为家II

30

主题

2895

帖子

9364

积分

金牌会员

Rank: 6Rank: 6

积分
9364
威望
2124
金币
2149
贡献
72
发表于 2018-6-5 06:17:18 | 显示全部楼层
她唱得真是不错,只是搞不清为什么取了那么多艺名,李雅、李娅、黎娅、黎亚……
回复

使用道具 举报

签到天数: 527 天

[LV.9]以坛为家II

1

主题

1414

帖子

3147

积分

中级会员

Rank: 3Rank: 3

积分
3147
威望
863
金币
2
贡献
5
发表于 2018-6-5 07:30:44 | 显示全部楼层
好在几个名字都相似,喜欢的歌声,谢谢分享
回复

使用道具 举报

签到天数: 496 天

[LV.9]以坛为家II

3

主题

1193

帖子

2759

积分

注册会员

Rank: 2

积分
2759
威望
713
金币
130
贡献
10
发表于 2018-6-5 08:16:27 | 显示全部楼层
翻唱的很好,耐听,谢谢分享!!!
回复

使用道具 举报

签到天数: 524 天

[LV.9]以坛为家II

14

主题

912

帖子

2684

积分

注册会员

Rank: 2

积分
2684
威望
507
金币
680
贡献
78
发表于 2018-6-5 08:17:13 | 显示全部楼层
我一直不明白这位歌手是港台的还是大陆的   感觉大陆可能性大  不过唱的很好听  谢谢楼主的分享
回复

使用道具 举报

签到天数: 107 天

[LV.6]常住居民II

20

主题

227

帖子

659

积分

新手上路

Rank: 1

积分
659
威望
186
金币
26
贡献
34
发表于 2018-6-5 11:17:39 | 显示全部楼层
这个没见过!稀有!使劲顶
回复

使用道具 举报

签到天数: 471 天

[LV.9]以坛为家II

67

主题

1285

帖子

7443

积分

高级会员

Rank: 4

积分
7443
威望
1977
金币
1582
贡献
607

发帖高手勋章

发表于 2018-6-5 11:24:45 | 显示全部楼层
感谢楼主的制作分享辛苦了
回复

使用道具 举报

签到天数: 620 天

[LV.9]以坛为家II

1

主题

1346

帖子

3111

积分

中级会员

Rank: 3Rank: 3

积分
3111
威望
606
金币
553
贡献
0
发表于 2018-6-5 13:20:12 | 显示全部楼层
mm-8305 发表于 2018-6-5 06:17
她唱得真是不错,只是搞不清为什么取了那么多艺名,李雅、李娅、黎娅、黎亚……

是不是她觉得自己不够红啊,不断换名字来引歌迷关注呢。哈哈,不过她的甜歌蛮动听的。
回复

使用道具 举报

签到天数: 491 天

[LV.9]以坛为家II

3

主题

836

帖子

1612

积分

新手上路

Rank: 1

积分
1612
威望
356
金币
58
贡献
6
发表于 2018-6-5 13:26:35 | 显示全部楼层
然歌曲不是很熟,但音质确实不错,谢谢分享!
回复

使用道具 举报

您需要登录后才可以回帖 登录 | 立即注册

本版积分规则

Archiver|手机版|小黑屋|数字音乐论坛 ( 津ICP备09009336号-1 )

GMT+8, 2019-9-23 08:38 , Processed in 0.328125 second(s), 56 queries .

Powered by Discuz! X3.4

© 2008-2019 上网要文明 发言要理性 本站禁灌水

快速回复 返回顶部 返回列表