开启辅助访问 收藏本站

数字音乐论坛

 找回密码
 立即注册
查看: 747|回复: 10

[光碟] [群星-中华歌典50年代 — 艰苦奋斗的岁月(CD2)][WAV/608MB][百度]

[复制链接]

签到天数: 423 天

[LV.9]以坛为家II

85

主题

817

帖子

1万

积分

版主

Rank: 7Rank: 7Rank: 7

积分
10812
威望
1245
金币
7123
贡献
377

斑竹专用勋章

发表于 2018-6-22 09:46:05 | 显示全部楼层 |阅读模式
本帖最后由 WSAN 于 2018-6-23 02:39 编辑






专辑名称:中华歌典50年代-艰苦奋斗的岁月(CD2)
出版发行:长春电影制片厂银声音像出版社
演 唱 者:群星
发行年代:2003年
发行编码:ISRC CN-D16-03-0387-0/A.J6
曲 目 数:18
抓轨软件:EAC
资源类型:CD-wav
网站支持:数字音乐论坛
论坛地址:www.22090.com


01 洪湖水浪打浪        王玉珍/ 傅凌
02 草原之夜             李双江
03 草原上升起不落的太阳       吴雁泽
04 弹起我心爱的土琵琶    上海乐团合唱队
05 一道道水来一道道山        郭兰英
06 缅桂花开十里香      王洁实/ 谢莉斯
07 三十里铺             冯健雪
08 采茶舞曲             叶彩华
09 新货郎               郭颂
10 洞庭鱼米香            何纪光
11 歌唱祖国        《东方红》合唱队
12 中国人民志愿军战歌    中国广播合唱团
13 听妈妈讲那过去的事情       吉庆莲
14 牧歌               范竞马
15 请茶歌              朱逢博
16 解放军同志请你停一停       任桂珍
17 草原夜色美            德德玛
18 月光下的凤尾竹          关牧村



试听歌曲:《歌唱祖国》


下载地址.txt

63 Bytes, 下载次数: 18

售价: 8 金币  [记录]

评分

已有 1 人评分威望 金币 贡献 收起 理由
WSAN + 8 + 16 + 8 老哥出手一个抵两

总评分: 威望 + 8 金币 + 16 贡献 + 8 查看全部评分

回复

使用道具 举报

签到天数: 423 天

[LV.9]以坛为家II

85

主题

817

帖子

1万

积分

版主

Rank: 7Rank: 7Rank: 7

积分
10812
威望
1245
金币
7123
贡献
377

斑竹专用勋章

 楼主| 发表于 2018-6-22 09:47:12 | 显示全部楼层

                               
登录/注册后可看大图


Exact Audio Copy V1.2 from 12. August 2016

EAC 抓取日志文件从21. 六月 2018, 15:46

群星 / 中国歌典 - 50年代(2)

使用驱动器 :PLDS  DVD-RW DS8A8SH  Adapter: 1 ID: 0

读取模式   : 可靠Secure
使用精确流   : 是
清空音频缓存  : 是
使用 C2 指示器 : 否

组合读写偏移校正:       : 0
读取 Lead-In 和 Lead-Out : 否
用静音填充抓取中丢失偏移的采样    : 是
去除首尾静音块       : 否
在CRC 计算中使用了空样本    : 是
已用接口         : Win NT 及 2000 本地 Win32 接口

所用输出模式: : 内部 WAV 函数
样本格式  : 44.100 Hz; 16 Bit; 立体声


已抓取 CD 的 TOC

   音轨 |  起始  |  长度  | 起始扇区 | 结束扇区  
    --------------------------------------------
   1 | 0:00.00 | 3:40.18 |   0 | 16517
   2 | 3:40.18 | 4:29.34 | 16518 | 36726
   3 | 8:09.52 | 3:36.15 | 36727 | 52941
   4 | 11:45.67 | 1:46.67 | 52942 | 60958
   5 | 13:32.59 | 3:37.16 | 60959 | 77249
   6 | 17:10.00 | 3:19.73 | 77250 | 92247
   7 | 20:29.73 | 3:54.72 | 92248 | 109869
   8 | 24:24.70 | 2:31.05 | 109870 | 121199
   9 | 26:56.00 | 3:32.40 | 121200 | 137139
   10 | 30:28.40 | 4:04.20 | 137140 | 155459
   11 | 34:32.60 | 3:13.12 | 155460 | 169946
   12 | 37:45.72 | 0:56.44 | 169947 | 174190
   13 | 38:42.41 | 4:21.39 | 174191 | 193804
   14 | 43:04.05 | 2:45.41 | 193805 | 206220
   15 | 45:49.46 | 2:13.29 | 206221 | 216224
   16 | 48:03.00 | 3:08.40 | 216225 | 230364
   17 | 51:11.40 | 4:12.22 | 230365 | 249286
   18 | 55:23.62 | 4:37.22 | 249287 | 270083


范围状态及错误

已选择范围

   文件名 D:\APE\CD抓轨\群星 - 中国歌典 - 50年代(2).wav

   峰值电平 97.3 %
   抓取速度 3.9 X
   范围质量 100.0 %
   复制 CRC B66AE96D
   复制成功

没有错误发生

状态报告结尾

---- CUETools DB Plugin V2.1.6

[CTDB TOCID: lCueUQgsbsyNPGjNwAad2VvnzpU-] found
Submit result: already submitted
Track | CTDB Status
 1  | (1/1) Accurately ripped
 2  | (1/1) Accurately ripped
 3  | (1/1) Accurately ripped
 4  | (1/1) Accurately ripped
 5  | (1/1) Accurately ripped
 6  | (1/1) Accurately ripped
 7  | (1/1) Accurately ripped
 8  | (1/1) Accurately ripped
 9  | (1/1) Accurately ripped
10  | (1/1) Accurately ripped
11  | (1/1) Accurately ripped
12  | (1/1) Accurately ripped
13  | (1/1) Accurately ripped
14  | (1/1) Accurately ripped
15  | (1/1) Accurately ripped
16  | (1/1) Accurately ripped
17  | (1/1) Accurately ripped
18  | (1/1) Accurately ripped


回复

使用道具 举报

签到天数: 211 天

[LV.7]常住居民III

47

主题

994

帖子

7152

积分

高级会员

Rank: 4

积分
7152
威望
1391
金币
3039
贡献
337
发表于 2018-6-22 09:55:28 | 显示全部楼层
【13 听妈妈讲那过去的事情------吉庆莲】这首是原词吗?就想听原词的,翻唱的都把关键的词取消了。哈哈哈。谢谢老歌提供资源。

回复

使用道具 举报

签到天数: 423 天

[LV.9]以坛为家II

85

主题

817

帖子

1万

积分

版主

Rank: 7Rank: 7Rank: 7

积分
10812
威望
1245
金币
7123
贡献
377

斑竹专用勋章

 楼主| 发表于 2018-6-22 10:42:09 | 显示全部楼层
苦人 发表于 2018-6-22 09:55
【13 听妈妈讲那过去的事情------吉庆莲】这首是原词吗?就想听原词的,翻唱的都把关键的词取消了。哈哈哈 ...

歌词附后,请苦人兄弟鉴别:

                               
登录/注册后可看大图

回复

使用道具 举报

签到天数: 164 天

[LV.7]常住居民III

119

主题

306

帖子

2万

积分

贵宾

Rank: 7Rank: 7Rank: 7

积分
29218
威望
2252
金币
23250
贡献
1088

贵宾专用勋章

发表于 2018-6-22 11:27:37 | 显示全部楼层
专辑中的大部分歌曲小时候在有线广播中听过,难忘。谢谢老歌兄分享!

回复

使用道具 举报

签到天数: 195 天

[LV.7]常住居民III

6

主题

420

帖子

1215

积分

新手上路

Rank: 1

积分
1215
威望
285
金币
191
贡献
34
发表于 2018-6-25 23:08:47 | 显示全部楼层
叶彩华的采茶舞曲特别喜欢,谢谢。             

回复

使用道具 举报

签到天数: 408 天

[LV.9]以坛为家II

8

主题

686

帖子

2147

积分

注册会员

Rank: 2

积分
2147
威望
317
金币
802
贡献
25
发表于 2018-6-27 17:38:56 | 显示全部楼层
老歌一出手必是精品,其中不少歌曲都是原唱,CD1中的歌曲更熟知一些。感谢老歌版主!

回复

使用道具 举报

签到天数: 400 天

[LV.9]以坛为家II

30

主题

2299

帖子

7751

积分

高级会员

Rank: 4

积分
7751
威望
1763
金币
1854
贡献
72
发表于 2018-6-28 17:22:58 | 显示全部楼层
难得的老歌原唱,虽然当时的录音技术不是很好,但更能体现原汁原味。

回复

使用道具 举报

签到天数: 14 天

[LV.3]偶尔看看II

3

主题

428

帖子

1198

积分

禁止访问

积分
1198
威望
375
金币
20
贡献
0
发表于 2018-6-28 21:50:25 | 显示全部楼层
提示: 作者被禁止或删除 内容自动屏蔽
回复

使用道具 举报

签到天数: 403 天

[LV.9]以坛为家II

21

主题

457

帖子

1627

积分

新手上路

Rank: 1

积分
1627
威望
52
金币
1066
贡献
0
发表于 2018-7-3 00:17:24 | 显示全部楼层
在我们过上二十一世纪新生活的今天,听听过去艰苦奋斗岁月的歌声,步伐会变得更加坚强。

回复

使用道具 举报

您需要登录后才可以回帖 登录 | 立即注册

本版积分规则

Archiver|手机版|小黑屋|数字音乐论坛 ( 津ICP备09009336号-1 )

GMT+8, 2019-2-16 07:30 , Processed in 1.368000 second(s), 62 queries .

Powered by Discuz! X3.4

© 2008-2018 Comsenz Inc.|上网要文明 发言要理性 本站禁灌水

快速回复 返回顶部 返回列表