开启辅助访问 收藏本站

数字音乐论坛

 找回密码
 立即注册
查看: 140|回复: 7

[分享] 曾庆瑜-《女人主意》[WAV/257MB][百度]

[复制链接]

签到天数: 140 天

[LV.7]常住居民III

25

主题

341

帖子

1550

积分

新手上路

Rank: 1

积分
1550
威望
453
金币
218
贡献
85
发表于 2018-7-6 09:59:08 | 显示全部楼层 |阅读模式
专辑名称:女人主意
演唱歌手:曾庆瑜
专辑制作:曹俊鸿、陈子鸿
出版时间:1991年1月1日
唱片编号:PD-9132
音乐语言:国语
发行公司:派森音乐
[audio][/audio]
专辑曲目:
01.其实你可以约我
02.下一个男人也许会更好
03.寂寞又何妨
04.怎么说呢
05.牵挂
06.我的浓情遮遮掩掩
07.我要让你爱我爱得有点担心
08.真爱是谁
09.何必管别人说
10.最后一滴
游客,如果您要查看本帖隐藏内容请回复



cover.jpg
back.jpg
disc.jpg

提取码.rar

97 Bytes, 下载次数: 2

售价: 30 金币  [记录]

评分

已有 1 人评分威望 金币 贡献 收起 理由
zjhjr + 4 + 8 + 4 很给力!

总评分: 威望 + 4 金币 + 8 贡献 + 4 查看全部评分

回复

使用道具 举报

签到天数: 140 天

[LV.7]常住居民III

25

主题

341

帖子

1550

积分

新手上路

Rank: 1

积分
1550
威望
453
金币
218
贡献
85
 楼主| 发表于 2018-7-6 10:00:29 | 显示全部楼层
Exact Audio Copy V1.3 from 2. September 2016

EAC extraction logfile from 26. May 2017, 14:44

曾慶瑜 / 女人主意

Used drive  : HL-DT-STDVDRAM GHC0N   Adapter: 1  ID: 0

Read mode               : Secure
Utilize accurate stream : Yes
Defeat audio cache      : Yes
Make use of C2 pointers : No

Read offset correction                      : 6
Overread into Lead-In and Lead-Out          : No
Fill up missing offset samples with silence : Yes
Delete leading and trailing silent blocks   : No
Null samples used in CRC calculations       : Yes
Used interface                              : Native Win32 interface for Win NT & 2000

Used output format : Internal WAV Routines
Sample format      : 44.100 Hz; 16 Bit; Stereo


TOC of the extracted CD

     Track |   Start  |  Length  | Start sector | End sector
    ---------------------------------------------------------
        1  |  0:00.00 |  3:50.13 |         0    |    17262   
        2  |  3:50.13 |  4:54.37 |     17263    |    39349   
        3  |  8:44.50 |  3:45.38 |     39350    |    56262   
        4  | 12:30.13 |  3:39.00 |     56263    |    72687   
        5  | 16:09.13 |  3:55.12 |     72688    |    90324   
        6  | 20:04.25 |  4:16.50 |     90325    |   109574   
        7  | 24:21.00 |  4:00.13 |    109575    |   127587   
        8  | 28:21.13 |  2:26.37 |    127588    |   138574   
        9  | 30:47.50 |  4:13.13 |    138575    |   157562   
       10  | 35:00.63 |  4:44.12 |    157563    |   178874   


Range status and errors

Selected range

     Filename C:\曾慶瑜 - 女人主意.wav

     Peak level 86.4 %
     Extraction speed 1.5 X
     Range quality 99.9 %
     Copy CRC C38B4384
     Copy OK

No errors occurred


AccurateRip summary

Track  1  not present in database
Track  2  not present in database
Track  3  not present in database
Track  4  not present in database
Track  5  not present in database
Track  6  not present in database
Track  7  not present in database
Track  8  not present in database
Track  9  not present in database
Track 10  not present in database

None of the tracks are present in the AccurateRip database

End of status report

---- CUETools DB Plugin V2.1.6

[CTDB TOCID: 3bG7BAAsghBbgVyrA0IJY9W3y2E-] disk not present in database
Submit result: 3bG7BAAsghBbgVyrA0IJY9W3y2E- has been uploaded
回复

使用道具 举报

签到天数: 266 天

[LV.8]以坛为家I

1

主题

723

帖子

2069

积分

注册会员

Rank: 2

积分
2069
威望
423
金币
499
贡献
1
发表于 2018-7-6 11:30:24 | 显示全部楼层
个性化歌手,曾庆瑜作品属于耐听型的
回复

使用道具 举报

签到天数: 258 天

[LV.8]以坛为家I

1

主题

306

帖子

956

积分

新手上路

Rank: 1

积分
956
威望
46
金币
558
贡献
0
发表于 2018-7-6 19:05:50 | 显示全部楼层
也出了不少专辑,不错
回复

使用道具 举报

签到天数: 246 天

[LV.8]以坛为家I

10

主题

474

帖子

1436

积分

新手上路

Rank: 1

积分
1436
威望
289
金币
334
贡献
50
发表于 2018-7-6 20:33:46 | 显示全部楼层
试听歌曲很好听 喜欢的类型  谢谢
回复

使用道具 举报

签到天数: 248 天

[LV.8]以坛为家I

1

主题

317

帖子

1079

积分

新手上路

Rank: 1

积分
1079
威望
66
金币
630
贡献
0
发表于 2018-7-7 07:08:07 | 显示全部楼层
曾庆瑜好像在83版《射雕英雄传》中演过瑛姑。
回复

使用道具 举报

签到天数: 264 天

[LV.8]以坛为家I

28

主题

1869

帖子

6012

积分

中级会员

Rank: 3Rank: 3

积分
6012
威望
1460
金币
1169
贡献
54
发表于 2018-7-7 15:20:13 | 显示全部楼层
“瑛姑”演绎的歌曲还是很有味道的,值得慢慢品味!
回复

使用道具 举报

签到天数: 26 天

[LV.4]偶尔看看III

1

主题

49

帖子

204

积分

新手上路

Rank: 1

积分
204
威望
22
金币
111
贡献
0
发表于 2018-7-9 09:34:05 | 显示全部楼层
第一次听她的歌曲,试听音质也不错
回复

使用道具 举报

您需要登录后才可以回帖 登录 | 立即注册

本版积分规则

数字音乐论坛

Archiver|手机版|小黑屋|数字音乐论坛 ( 津ICP备09009336号-1 )

GMT+8, 2018-9-19 21:18 , Processed in 1.073000 second(s), 33 queries .

Powered by Discuz! X3.4

© 2008-2018 Comsenz Inc.|上网要文明 发言要理性 本站禁灌水

快速回复 返回顶部 返回列表