开启辅助访问 收藏本站

数字音乐论坛

 找回密码
 立即注册
查看: 1103|回复: 17

[原创] [刘清池 - 特殊旋律演奏1·刘清池演奏6][WAV/526MB][百度]

[复制链接]

签到天数: 35 天

[LV.5]常住居民I

7

主题

76

帖子

1205

积分

新手上路

Rank: 1

积分
1205
威望
144
金币
788
贡献
48
发表于 2018-7-26 16:54:56 | 显示全部楼层 |阅读模式
专辑名称:特殊旋律演奏1
艺术家:刘清池
发行公司:金桦唱片有限公司
唱片编号:WCD-0006  
专辑曲目(红色字为试听曲目):
1.十八姑娘一朵花
2.水长流
3.怀念
4.月光小夜曲
5.江水向东流
6.第二春
7.阿蘭娜
8.魂萦旧梦
9.绿岛小夜曲
10.梭罗河畔
11.明月千里寄相思
12.恨不钟情在当年
13.几度花落时
14.秋的怀念
15.雪山盟
16.不了情
封面.png 封底.png
碟片.png

游客,如果您要查看本帖隐藏内容请回复

密码.rar (149 Bytes, 下载次数: 23, 售价: 25 金币)

评分

已有 1 人评分威望 金币 贡献 收起 理由
WSAN + 8 + 16 + 8 赞一个!

总评分: 威望 + 8 金币 + 16 贡献 + 8 查看全部评分

回复

使用道具 举报

签到天数: 386 天

[LV.9]以坛为家II

168

主题

1180

帖子

9513

积分

超级版主

Rank: 8Rank: 8

积分
9513
威望
1601
金币
4653
贡献
468

突出贡献优秀版主荣誉管理

发表于 2018-7-26 18:26:36 | 显示全部楼层
Exact Audio Copy V1.3 from 2. September 2016

EAC 抓取日志文件从25. 七月 2018, 22:13

刘清池 / 特殊旋律演奏1(第6集)

使用驱动器  :PIONEER DVD-RW  DVR-221L   Adapter: 1  ID: 0

读取模式      : 可靠Secure
使用精确流     : 是
清空音频缓存    : 是
使用 C2 指示器 : 否

读取偏移校正:               : 0
读取 Lead-In 和 Lead-Out : 否
用静音填充抓取中丢失偏移的采样       : 是
去除首尾静音块               : 否
在CRC 计算中使用了空样本       : 是
已用接口                  : Win NT 及 2000 本地 Win32 接口

所用输出模式: : 内部 WAV 函数
样本格式    : 44.100 Hz; 16 Bit; 立体声


已抓取 CD 的 TOC

     音轨 |    起始    |    长度    |  起始扇区  |  结束扇区  
    --------------------------------------------
      1 |  0:00.00 |  3:05.12 |      0 |  13886
      2 |  3:05.12 |  3:01.00 |  13887 |  27461
      3 |  6:06.12 |  3:19.63 |  27462 |  42449
      4 |  9:26.00 |  3:22.50 |  42450 |  57649
      5 | 12:48.50 |  3:01.37 |  57650 |  71261
      6 | 15:50.12 |  3:16.38 |  71262 |  85999
      7 | 19:06.50 |  3:16.37 |  86000 | 100736
      8 | 22:23.12 |  3:12.00 | 100737 | 115136
      9 | 25:35.12 |  3:16.63 | 115137 | 129899
     10 | 28:52.00 |  2:56.00 | 129900 | 143099
     11 | 31:48.00 |  3:19.00 | 143100 | 158024
     12 | 35:07.00 |  3:07.37 | 158025 | 172086
     13 | 38:14.37 |  3:18.38 | 172087 | 186974
     14 | 41:33.00 |  4:05.12 | 186975 | 205361
     15 | 45:38.12 |  2:52.63 | 205362 | 218324
     16 | 48:31.00 |  3:35.49 | 218325 | 234498


范围状态及错误

已选择范围

     文件名 E:\BaiduMusic\专辑\刘清池 - 特殊旋律演奏1(第6集).wav

     峰值电平 100.0 %
     抓取速度 2.0 X
     范围质量 100.0 %
     复制 CRC 6FD5BAE3
     复制成功

没有错误发生

状态报告结尾

---- CUETools DB Plugin V2.1.6

[CTDB TOCID: xHuNCAoPEZjp5xtKdK5Xqfm8I48-] disk not present in database
Submit result: xHuNCAoPEZjp5xtKdK5Xqfm8I48- has been uploaded


回复

使用道具 举报

签到天数: 364 天

[LV.8]以坛为家I

11

主题

543

帖子

1837

积分

新手上路

Rank: 1

积分
1837
威望
182
金币
925
贡献
5
发表于 2018-7-26 18:59:31 | 显示全部楼层
非常感谢经典之声楼主提供上传分享好听的刘清池 特殊旋律演奏音乐

回复

使用道具 举报

签到天数: 414 天

[LV.9]以坛为家II

51

主题

934

帖子

9620

积分

金牌会员

Rank: 6Rank: 6

积分
9620
威望
1415
金币
5334
贡献
517

发帖高手勋章

发表于 2018-7-26 20:23:12 | 显示全部楼层
音质很棒,应该是原抓。谢谢分享!

回复

使用道具 举报

签到天数: 388 天

[LV.9]以坛为家II

13

主题

710

帖子

2388

积分

注册会员

Rank: 2

积分
2388
威望
423
金币
763
贡献
69
发表于 2018-7-26 21:13:34 | 显示全部楼层
刘清池的特殊旋律演奏是我的最爱 每一辑都是经典啊 感谢分享 收藏了

回复

使用道具 举报

签到天数: 397 天

[LV.9]以坛为家II

27

主题

544

帖子

1万

积分

管理员

Rank: 9Rank: 9Rank: 9

积分
11945
威望
642
金币
9824
贡献
263

最佳新人活跃会员热心会员推广达人宣传达人灌水之王突出贡献优秀版主荣誉管理论坛元老

发表于 2018-7-26 22:07:55 | 显示全部楼层
效果的确不错,谢谢!

回复

使用道具 举报

签到天数: 427 天

[LV.9]以坛为家II

76

主题

1241

帖子

1万

积分

贵宾

Rank: 7Rank: 7Rank: 7

积分
15919
威望
1936
金币
10213
贡献
578

贵宾专用勋章

发表于 2018-7-26 22:34:41 | 显示全部楼层
如缕缕凉风,带给我们夏的慰籍。

我新发布了帖子《[杨钰莹 - 梦中花][WAV/445MB][百度][代发]》,快来围观吧!
回复

使用道具 举报

签到天数: 248 天

[LV.8]以坛为家I

25

主题

537

帖子

1890

积分

新手上路

Rank: 1

积分
1890
威望
541
金币
186
贡献
85
发表于 2018-7-27 07:28:58 手机频道 | 显示全部楼层
刘清池的音乐真是让人陶醉,音质好,过瘾,感谢分享

回复

使用道具 举报

签到天数: 344 天

[LV.8]以坛为家I

1

主题

989

帖子

2266

积分

注册会员

Rank: 2

积分
2266
威望
622
金币
28
贡献
5
发表于 2018-7-27 07:45:54 | 显示全部楼层
刘清池音乐大师的作品,谢谢分享

回复

使用道具 举报

签到天数: 267 天

[LV.8]以坛为家I

1

主题

426

帖子

702

积分

新手上路

Rank: 1

积分
702
威望
127
金币
22
贡献
0
发表于 2018-7-27 08:57:51 | 显示全部楼层
刘大师的配器真不错,旋律优美好听。

回复

使用道具 举报

您需要登录后才可以回帖 登录 | 立即注册

本版积分规则

数字音乐论坛

Archiver|手机版|小黑屋|数字音乐论坛 ( 津ICP备09009336号-1 )

GMT+8, 2019-2-19 03:25 , Processed in 1.324000 second(s), 58 queries .

Powered by Discuz! X3.4

© 2008-2018 Comsenz Inc.|上网要文明 发言要理性 本站禁灌水

快速回复 返回顶部 返回列表