请选择 进入手机版 | 继续访问电脑版
开启辅助访问 收藏本站

数字音乐论坛

 找回密码
 立即注册
查看: 152|回复: 12

[原创] 车乐友 史上最优美的二胡3CD无损WAV+CUE百度盘

[复制链接]

签到天数: 32 天

[LV.5]常住居民I

25

主题

99

帖子

1308

积分

新手上路

Rank: 1

积分
1308
威望
216
金币
688
贡献
89
发表于 2018-8-3 16:35:02 | 显示全部楼层 |阅读模式
本帖最后由 闲情 于 2018-8-3 16:47 编辑

CD.jpg
封底.jpg

CD3.jpg
CD1.jpg
名称:史上最优美的二胡
艺人:群星
类型:纯音乐
来源:3CD
格式:WAV+CUE
发行年份:2006
出版发行:中国科学文化音像出版社
ISRC CN_A23-06-407-00/A.J6
出品人:王长缨
监制:薛淼
原抓:数字音乐论坛 闲情
简介:
倾听最美的旋律,感受来自内心深处最美妙的乐符。
品味生活品味音乐最能打动你掩藏最深的情感世界。

CD1和CD3是分轨,CD2是整轨,13年以压缩包的形式上传过论坛,加了密码,几年了CD2的密码忘记了,

只有重新抓了一遍。

曲目名称:
CD1
01 二泉映月
02 听松
03 梁祝
04 江河水

05 紫竹调
06 病中吟
07 将军令
08 汉宫秋月
09 寒鸦戏水
10 金蛇狂舞
11 赛龙夺锦
12 空山鸟语
13 阳关三叠
14 昭君出塞
15 渔舟唱晚

CD2
01 赛马
02 采花



03 良宵
04 月夜
05 游园
06 光明行
07 夜深沉
08 流波曲
09 长相思
10 北风吹
11 战马奔腾
12 苏南小曲
13 扬州小调
14 江南春色
15 喜送公粮
16 春江花月夜
17 京调

CD3
01 烛影摇红
02 秋收
03 瑶族舞曲
04 独弦操
05 赶集
06 步步高
07 悲歌
08 山村变了样



09 过三关
10 舞狮
11 一枝花
12 十里屯
13 迎春花
14 妆台的日子15 花梆子16 秦腔牌子曲
链接:https://pan.baidu.com/s/1iUsmDu5Jy4nRaXXlkPrgWA 密码:
游客,如果您要查看本帖隐藏内容请回复


本帖仅做交流欣赏使用,如有侵犯您的权益,请联系在线版主和管理员删除!







评分

已有 1 人评分威望 金币 贡献 收起 理由
WSAN + 24 + 48 + 24 赞一个!

总评分: 威望 + 24 金币 + 48 贡献 + 24 查看全部评分

回复

使用道具 举报

签到天数: 32 天

[LV.5]常住居民I

25

主题

99

帖子

1308

积分

新手上路

Rank: 1

积分
1308
威望
216
金币
688
贡献
89
 楼主| 发表于 2018-8-3 16:42:26 | 显示全部楼层
这是13年的抓轨信息
EAC 抓取日志文件从9. 九月 2013, 8:09 用于 CD
未知艺术家 / 未知标题

使用驱动器  :HL-DT-STRW/DVD GCC-T10N   Adapter: 0  ID: 0
读取模式    :不使用 C2, 使用精确流,不禁用缓存的安全模式
组合读写偏移校正:0
读取 Lead-In 和 Lead-Out : 否

所用输出模式:Microsoft PCM Converter
                     44.100 kHz, 16 位, 立体声

其他选项    :
    用静音填充抓取中丢失偏移的采样 : 是
    去除首尾静音块 : 否
    Win NT 及 2000 本地 Win32 接口


音轨  1
     文件名 C:\Documents and Settings\Administrator\桌面\史上最优美的二胡CD1\Track01.wav

     峰值电平 97.3 %
     音轨质量 99.9 %
     复制 CRC 017C4474
     复制成功

音轨  2
     文件名 C:\Documents and Settings\Administrator\桌面\史上最优美的二胡CD1\Track02.wav

     峰值电平 89.6 %
     音轨质量 100.0 %
     复制 CRC C1169D40
     复制成功

音轨  3
     文件名 C:\Documents and Settings\Administrator\桌面\史上最优美的二胡CD1\Track03.wav

     峰值电平 67.7 %
     音轨质量 100.0 %
     复制 CRC B4AAA047
     复制成功

音轨  4
     文件名 C:\Documents and Settings\Administrator\桌面\史上最优美的二胡CD1\Track04.wav

     峰值电平 100.0 %
     音轨质量 100.0 %
     复制 CRC AC028BA6
     复制成功

音轨  5
     文件名 C:\Documents and Settings\Administrator\桌面\史上最优美的二胡CD1\Track05.wav

     峰值电平 68.7 %
     音轨质量 100.0 %
     复制 CRC 856D6E80
     复制成功

音轨  6
     文件名 C:\Documents and Settings\Administrator\桌面\史上最优美的二胡CD1\Track06.wav

     峰值电平 93.2 %
     音轨质量 100.0 %
     复制 CRC C0883420
     复制成功

音轨  7
     文件名 C:\Documents and Settings\Administrator\桌面\史上最优美的二胡CD1\Track07.wav

     峰值电平 64.2 %
     音轨质量 100.0 %
     复制 CRC 987456E4
     复制成功

音轨  8
     文件名 C:\Documents and Settings\Administrator\桌面\史上最优美的二胡CD1\Track08.wav

     峰值电平 89.0 %
     音轨质量 99.9 %
     复制 CRC 4C5A48EE
     复制成功

音轨  9
     文件名 C:\Documents and Settings\Administrator\桌面\史上最优美的二胡CD1\Track09.wav

     峰值电平 73.9 %
     音轨质量 100.0 %
     复制 CRC 217EDC09
     复制成功

音轨 10
     文件名 C:\Documents and Settings\Administrator\桌面\史上最优美的二胡CD1\Track10.wav

     峰值电平 88.7 %
     音轨质量 100.0 %
     复制 CRC 6AEDE159
     复制成功

音轨 11
     文件名 C:\Documents and Settings\Administrator\桌面\史上最优美的二胡CD1\Track11.wav

     峰值电平 73.5 %
     音轨质量 100.0 %
     复制 CRC 818A218E
     复制成功

音轨 12
     文件名 C:\Documents and Settings\Administrator\桌面\史上最优美的二胡CD1\Track12.wav

     峰值电平 100.0 %
     音轨质量 100.0 %
     复制 CRC FD35FC55
     复制成功

音轨 13
     文件名 C:\Documents and Settings\Administrator\桌面\史上最优美的二胡CD1\Track13.wav

     峰值电平 99.0 %
     音轨质量 100.0 %
     复制 CRC 320F0089
     复制成功

音轨 14
     文件名 C:\Documents and Settings\Administrator\桌面\史上最优美的二胡CD1\Track14.wav

     峰值电平 90.0 %
     音轨质量 100.0 %
     复制 CRC 5A95507F
     复制成功

音轨 15
     文件名 C:\Documents and Settings\Administrator\桌面\史上最优美的二胡CD1\Track15.wav

     峰值电平 76.9 %
     音轨质量 100.0 %
     复制 CRC AAB676C5
     复制成功

没有错误发生


状态报告结尾
回复

使用道具 举报

签到天数: 32 天

[LV.5]常住居民I

25

主题

99

帖子

1308

积分

新手上路

Rank: 1

积分
1308
威望
216
金币
688
贡献
89
 楼主| 发表于 2018-8-3 16:43:14 | 显示全部楼层
这是CD2现在的抓轨信息
Exact Audio Copy V1.3 from 2. September 2016

EAC 抓取日志文件从13. 七月 2018, 15:46

未知艺术家 / 史上最优美的二胡CD2

使用驱动器  :ASUS    DVD-E818A9T   b   Adapter: 1  ID: 0

读取模式      : 可靠Secure
使用精确流     : 是
清空音频缓存    : 否
使用 C2 指示器 : 否

组合读写偏移校正:             : 0
读取 Lead-In 和 Lead-Out : 否
用静音填充抓取中丢失偏移的采样       : 是
去除首尾静音块               : 否
在CRC 计算中使用了空样本       : 是
已用接口                  : Win NT 及 2000 本地 Win32 接口

所用输出模式: : 内部 WAV 函数
样本格式    : 44.100 Hz; 16 Bit; 立体声


已抓取 CD 的 TOC

     音轨 |    起始    |    长度    |  起始扇区  |  结束扇区  
    --------------------------------------------
      1 |  0:00.00 |  1:57.61 |      0 |   8835
      2 |  1:57.61 |  2:59.45 |   8836 |  22305
      3 |  4:57.31 |  2:41.52 |  22306 |  34432
      4 |  7:39.08 |  7:50.52 |  34433 |  69734
      5 | 15:29.60 |  5:28.38 |  69735 |  94372
      6 | 20:58.23 |  3:18.70 |  94373 | 109292
      7 | 24:17.18 |  4:07.62 | 109293 | 127879
      8 | 28:25.05 |  5:01.36 | 127880 | 150490
      9 | 33:26.41 |  5:21.38 | 150491 | 174603
     10 | 38:48.04 |  4:08.52 | 174604 | 193255
     11 | 42:56.56 |  3:45.62 | 193256 | 210192
     12 | 46:42.43 |  2:08.55 | 210193 | 219847
     13 | 48:51.23 |  4:39.22 | 219848 | 240794
     14 | 53:30.45 |  6:03.20 | 240795 | 268039
     15 | 59:33.65 |  3:20.17 | 268040 | 283056
     16 | 62:54.07 | 10:56.37 | 283057 | 332293
     17 | 73:50.44 |  3:30.47 | 332294 | 348090


范围状态及错误

已选择范围

     文件名 C:\Users\1\Documents\未知艺术家 - 史上最优美的二胡CD2.wav

     峰值电平 100.0 %
     抓取速度 3.6 X
     范围质量 99.9 %
     复制 CRC 35E13F2E
     复制成功

没有错误发生

状态报告结尾

---- CUETools DB Plugin V2.1.6

[CTDB TOCID: KYGI.Mmd7.2Zxjdj9BXlIXOOTZM-] found
Submit result: KYGI.Mmd7.2Zxjdj9BXlIXOOTZM- has been confirmed
Track | CTDB Status
  1   | (1/1) Accurately ripped
  2   | (1/1) Accurately ripped
  3   | (1/1) Accurately ripped
  4   | (1/1) Accurately ripped
  5   | (1/1) Accurately ripped
  6   | (1/1) Accurately ripped
  7   | (1/1) Accurately ripped
  8   | (1/1) Accurately ripped
  9   | (1/1) Accurately ripped
10   | (1/1) Accurately ripped
11   | (1/1) Accurately ripped
12   | (1/1) Accurately ripped
13   | (1/1) Accurately ripped
14   | (1/1) Accurately ripped
15   | (1/1) Accurately ripped
16   | (1/1) Accurately ripped
17   | (1/1) Accurately ripped

回复

使用道具 举报

签到天数: 32 天

[LV.5]常住居民I

25

主题

99

帖子

1308

积分

新手上路

Rank: 1

积分
1308
威望
216
金币
688
贡献
89
 楼主| 发表于 2018-8-3 16:44:09 | 显示全部楼层
这是CD2现在的抓轨信息
Exact Audio Copy V1.3 from 2. September 2016

EAC 抓取日志文件从13. 七月 2018, 15:46

未知艺术家 / 史上最优美的二胡CD2

使用驱动器  :ASUS    DVD-E818A9T   b   Adapter: 1  ID: 0

读取模式      : 可靠Secure
使用精确流     : 是
清空音频缓存    : 否
使用 C2 指示器 : 否

组合读写偏移校正:             : 0
读取 Lead-In 和 Lead-Out : 否
用静音填充抓取中丢失偏移的采样       : 是
去除首尾静音块               : 否
在CRC 计算中使用了空样本       : 是
已用接口                  : Win NT 及 2000 本地 Win32 接口

所用输出模式: : 内部 WAV 函数
样本格式    : 44.100 Hz; 16 Bit; 立体声


已抓取 CD 的 TOC

     音轨 |    起始    |    长度    |  起始扇区  |  结束扇区  
    --------------------------------------------
      1 |  0:00.00 |  1:57.61 |      0 |   8835
      2 |  1:57.61 |  2:59.45 |   8836 |  22305
      3 |  4:57.31 |  2:41.52 |  22306 |  34432
      4 |  7:39.08 |  7:50.52 |  34433 |  69734
      5 | 15:29.60 |  5:28.38 |  69735 |  94372
      6 | 20:58.23 |  3:18.70 |  94373 | 109292
      7 | 24:17.18 |  4:07.62 | 109293 | 127879
      8 | 28:25.05 |  5:01.36 | 127880 | 150490
      9 | 33:26.41 |  5:21.38 | 150491 | 174603
     10 | 38:48.04 |  4:08.52 | 174604 | 193255
     11 | 42:56.56 |  3:45.62 | 193256 | 210192
     12 | 46:42.43 |  2:08.55 | 210193 | 219847
     13 | 48:51.23 |  4:39.22 | 219848 | 240794
     14 | 53:30.45 |  6:03.20 | 240795 | 268039
     15 | 59:33.65 |  3:20.17 | 268040 | 283056
     16 | 62:54.07 | 10:56.37 | 283057 | 332293
     17 | 73:50.44 |  3:30.47 | 332294 | 348090


范围状态及错误

已选择范围

     文件名 C:\Users\1\Documents\未知艺术家 - 史上最优美的二胡CD2.wav

     峰值电平 100.0 %
     抓取速度 3.6 X
     范围质量 99.9 %
     复制 CRC 35E13F2E
     复制成功

没有错误发生

状态报告结尾

---- CUETools DB Plugin V2.1.6

[CTDB TOCID: KYGI.Mmd7.2Zxjdj9BXlIXOOTZM-] found
Submit result: KYGI.Mmd7.2Zxjdj9BXlIXOOTZM- has been confirmed
Track | CTDB Status
  1   | (1/1) Accurately ripped
  2   | (1/1) Accurately ripped
  3   | (1/1) Accurately ripped
  4   | (1/1) Accurately ripped
  5   | (1/1) Accurately ripped
  6   | (1/1) Accurately ripped
  7   | (1/1) Accurately ripped
  8   | (1/1) Accurately ripped
  9   | (1/1) Accurately ripped
10   | (1/1) Accurately ripped
11   | (1/1) Accurately ripped
12   | (1/1) Accurately ripped
13   | (1/1) Accurately ripped
14   | (1/1) Accurately ripped
15   | (1/1) Accurately ripped
16   | (1/1) Accurately ripped
17   | (1/1) Accurately ripped

回复

使用道具 举报

签到天数: 32 天

[LV.5]常住居民I

25

主题

99

帖子

1308

积分

新手上路

Rank: 1

积分
1308
威望
216
金币
688
贡献
89
 楼主| 发表于 2018-8-3 17:30:21 | 显示全部楼层
IMG_20180803_1505221.jpg
回复

使用道具 举报

签到天数: 235 天

[LV.7]常住居民III

50

主题

579

帖子

8676

积分

金牌会员

Rank: 6Rank: 6

积分
8676
威望
1222
金币
5140
贡献
508

发帖高手勋章

发表于 2018-8-3 20:17:15 | 显示全部楼层
好听的二胡,很喜欢!
回复

使用道具 举报

签到天数: 218 天

[LV.7]常住居民III

1

主题

286

帖子

1000

积分

新手上路

Rank: 1

积分
1000
威望
65
金币
584
贡献
0
发表于 2018-8-4 05:46:58 | 显示全部楼层
民乐好听,这里面有一些曲子都听过。
回复

使用道具 举报

签到天数: 182 天

[LV.7]常住居民III

1

主题

594

帖子

1460

积分

新手上路

Rank: 1

积分
1460
威望
395
金币
71
贡献
5
发表于 2018-8-4 07:40:07 | 显示全部楼层
民乐名曲大全,谢谢分享
回复

使用道具 举报

签到天数: 230 天

[LV.7]常住居民III

1

主题

383

帖子

1494

积分

新手上路

Rank: 1

积分
1494
威望
150
金币
811
贡献
0
发表于 2018-8-4 12:07:37 | 显示全部楼层
谢谢楼主分享的 史上最优美的二胡/3CD,很给力哦,二胡作品比较稀缺。
回复

使用道具 举报

签到天数: 22 天

[LV.4]偶尔看看III

1

主题

35

帖子

116

积分

新手上路

Rank: 1

积分
116
威望
7
金币
67
贡献
0
发表于 2018-8-5 09:23:58 | 显示全部楼层
试听的乐曲基本是民乐合奏了。
回复

使用道具 举报

您需要登录后才可以回帖 登录 | 立即注册

本版积分规则

数字音乐论坛

Archiver|手机版|小黑屋|数字音乐论坛 ( 津ICP备09009336号-1 )

GMT+8, 2018-8-17 07:10 , Processed in 0.166388 second(s), 33 queries .

Powered by Discuz! X3.4

© 2008-2018 Comsenz Inc.|上网要文明 发言要理性 本站禁灌水

快速回复 返回顶部 返回列表