请选择 进入手机版 | 继续访问电脑版
开启辅助访问 收藏本站

数字音乐论坛

 找回密码
 立即注册
查看: 120|回复: 10

[原创] 原抓:茶座情歌无损WAV+CUE百度盘

[复制链接]

签到天数: 32 天

[LV.5]常住居民I

25

主题

99

帖子

1308

积分

新手上路

Rank: 1

积分
1308
威望
216
金币
688
贡献
89
发表于 2018-8-7 16:01:55 | 显示全部楼层 |阅读模式
本帖最后由 闲情 于 2018-8-7 16:08 编辑

IMG_20180807_154614.jpg IMG_20180807_154546.jpg

IMG_20180807_154457.jpg
唱片艺人:群星
唱片性质:示范碟(HDCD)
唱片公司:滚石
唱片发行:广州音像出版社
发行年份:2002
ISRC CN-F28-02-753-00/A.J6
资源格式:WAV+CUE
抓轨工具:EAC
简介:
几年前发到论坛过,重新发一次,整张唱片舒缓,温柔,听着很舒服。泡壶茶,静听,炎热的夏天好像离我远去。
曲目:
01 失去节奏的探戈
02 只要你记得
03 又是黄昏
04 心声泪痕
05 情人再见
06 怀念
07 爱你爱在心坎里

08 背影
09 唱首情歌给谁听
10 初恋
11 月朦胧鸟朦胧
12 珊瑚恋
13 离情
14 流水年华
15 誓言
16 午夜香吻
17 夕阳伴我舞
18 小城故事
链接:https://pan.baidu.com/s/1Rh5ISnDgKm4S7XghZCgXNw 密码:
游客,如果您要查看本帖隐藏内容请回复




评分

已有 1 人评分威望 金币 贡献 收起 理由
WSAN + 8 + 16 + 8 赞一个!

总评分: 威望 + 8 金币 + 16 贡献 + 8 查看全部评分

回复

使用道具 举报

签到天数: 32 天

[LV.5]常住居民I

25

主题

99

帖子

1308

积分

新手上路

Rank: 1

积分
1308
威望
216
金币
688
贡献
89
 楼主| 发表于 2018-8-7 16:02:55 | 显示全部楼层
抓轨记录
Exact Audio Copy V1.3 from 2. September 2016

EAC 抓取日志文件从13. 七月 2018, 13:41

群星 / 茶座情歌

使用驱动器  :ASUS    DVD-E818A9T   b   Adapter: 1  ID: 0

读取模式      : 可靠Secure
使用精确流     : 是
清空音频缓存    : 否
使用 C2 指示器 : 否

组合读写偏移校正:             : 0
读取 Lead-In 和 Lead-Out : 否
用静音填充抓取中丢失偏移的采样       : 是
去除首尾静音块               : 否
在CRC 计算中使用了空样本       : 是
已用接口                  : Win NT 及 2000 本地 Win32 接口

所用输出模式: : 内部 WAV 函数
样本格式    : 44.100 Hz; 16 Bit; 立体声


已抓取 CD 的 TOC

     音轨 |    起始    |    长度    |  起始扇区  |  结束扇区  
    --------------------------------------------
      1 |  0:00.00 |  3:29.01 |      0 |  15675
      2 |  3:29.01 |  3:41.44 |  15676 |  32294
      3 |  7:10.45 |  3:07.02 |  32295 |  46321
      4 | 10:17.47 |  3:18.40 |  46322 |  61211
      5 | 13:36.12 |  3:22.40 |  61212 |  76401
      6 | 16:58.52 |  3:36.73 |  76402 |  92674
      7 | 20:35.50 |  2:44.04 |  92675 | 104978
      8 | 23:19.54 |  3:40.27 | 104979 | 121505
      9 | 27:00.06 |  3:59.04 | 121506 | 139434
     10 | 30:59.10 |  3:09.05 | 139435 | 153614
     11 | 34:08.15 |  2:35.38 | 153615 | 165277
     12 | 36:43.53 |  3:21.73 | 165278 | 180425
     13 | 40:05.51 |  3:21.04 | 180426 | 195504
     14 | 43:26.55 |  4:05.04 | 195505 | 213883
     15 | 47:31.59 |  3:11.16 | 213884 | 228224
     16 | 50:43.00 |  3:48.04 | 228225 | 245328
     17 | 54:31.04 |  3:17.01 | 245329 | 260104
     18 | 57:48.05 |  4:05.04 | 260105 | 278483


范围状态及错误

已选择范围

     文件名 C:\Users\1\Documents\群星 - 茶座情歌.wav

     峰值电平 100.0 %
     抓取速度 5.4 X
     范围质量 100.0 %
     复制 CRC 599F3C02
     复制成功

没有错误发生

状态报告结尾

---- CUETools DB Plugin V2.1.6

[CTDB TOCID: bV9m5QnOPWyZWrvKcAcrt85Ppmw-] disk not present in database
Submit result: bV9m5QnOPWyZWrvKcAcrt85Ppmw- has been uploaded

回复

使用道具 举报

签到天数: 32 天

[LV.5]常住居民I

25

主题

99

帖子

1308

积分

新手上路

Rank: 1

积分
1308
威望
216
金币
688
贡献
89
 楼主| 发表于 2018-8-7 16:04:47 | 显示全部楼层
群星 - 茶庄情歌.wav.png
-----------------------

DON'T MODIFY THIS FILE

-----------------------

PERFORMER: auCDtect Task Manager, ver. 1.5.1RC6 build 1.5.1.7
Copyright (c) 2008-2010 y-soft. All rights reserved
http://y-soft.org

ANALYZER: auCDtect: CD records authenticity detector, version 0.8.2
Copyright (c) 2004 Oleg Berngardt. All rights reserved.
Copyright (c) 2004 Alexander Djourik. All rights reserved.


FILE: 群星 - 茶庄情歌.wav
  Size: 654994412 Hash: D0D3CC8D418646942B039624524FCD7C Accuracy: -m0
  Conclusion: CDDA 100%
  Signature: 134CC6B5067CA836055D8C1962E58498FC9F4552

回复

使用道具 举报

签到天数: 239 天

[LV.7]常住居民III

1

主题

773

帖子

1980

积分

新手上路

Rank: 1

积分
1980
威望
424
金币
359
贡献
0
发表于 2018-8-7 20:24:02 | 显示全部楼层
试听是陈思安的声音,谢谢分享了!
回复

使用道具 举报

签到天数: 182 天

[LV.7]常住居民III

1

主题

594

帖子

1460

积分

新手上路

Rank: 1

积分
1460
威望
395
金币
71
贡献
5
发表于 2018-8-8 08:02:24 | 显示全部楼层
应该是陈思安的专辑,谢谢分享
回复

使用道具 举报

签到天数: 54 天

[LV.5]常住居民I

1

主题

65

帖子

189

积分

新手上路

Rank: 1

积分
189
威望
8
金币
108
贡献
0
发表于 2018-8-8 09:08:20 | 显示全部楼层
无所事事喝喝茶,欣赏欣赏音乐,谢谢分享茶座情歌
回复

使用道具 举报

签到天数: 32 天

[LV.5]常住居民I

25

主题

99

帖子

1308

积分

新手上路

Rank: 1

积分
1308
威望
216
金币
688
贡献
89
 楼主| 发表于 2018-8-8 10:24:22 | 显示全部楼层
青青的小萍果 发表于 2018-8-7 20:24
试听是陈思安的声音,谢谢分享了!

怀疑是,不敢确定。封面上又没有,不敢写上来。
回复

使用道具 举报

签到天数: 232 天

[LV.7]常住居民III

1

主题

676

帖子

1977

积分

新手上路

Rank: 1

积分
1977
威望
410
金币
480
贡献
1
发表于 2018-8-8 11:16:23 | 显示全部楼层
陈思安早期的酒廊情歌,喜欢这种怀旧调调
回复

使用道具 举报

签到天数: 188 天

[LV.7]常住居民III

1

主题

596

帖子

1402

积分

新手上路

Rank: 1

积分
1402
威望
399
金币
8
贡献
0
发表于 2018-8-8 11:26:35 | 显示全部楼层
确实也不好说歌手都有谁,这个类型的唱片听过些,感觉不错,谢谢分享!!!
回复

使用道具 举报

签到天数: 231 天

[LV.7]常住居民III

28

主题

1800

帖子

5916

积分

中级会员

Rank: 3Rank: 3

积分
5916
威望
1433
金币
1196
贡献
54
发表于 6 天前 | 显示全部楼层
感谢分享,感觉滚石唱片不会出这种风格的唱片,这个应该不是正版,不过试听很好听的。
回复

使用道具 举报

您需要登录后才可以回帖 登录 | 立即注册

本版积分规则

数字音乐论坛

Archiver|手机版|小黑屋|数字音乐论坛 ( 津ICP备09009336号-1 )

GMT+8, 2018-8-17 00:37 , Processed in 0.178414 second(s), 29 queries .

Powered by Discuz! X3.4

© 2008-2018 Comsenz Inc.|上网要文明 发言要理性 本站禁灌水

快速回复 返回顶部 返回列表