请选择 进入手机版 | 继续访问电脑版
开启辅助访问 收藏本站

数字音乐论坛

 找回密码
 立即注册
查看: 119|回复: 8

[原创] 原抓:梦之旅组合流淌的歌声真情依旧7-2CD(WAV+CUE)百度盘

[复制链接]

签到天数: 32 天

[LV.5]常住居民I

25

主题

99

帖子

1308

积分

新手上路

Rank: 1

积分
1308
威望
216
金币
688
贡献
89
发表于 2018-8-7 19:02:42 | 显示全部楼层 |阅读模式
本帖最后由 闲情 于 2018-8-7 19:06 编辑

IMG_20180807_161744.jpg
IMG_20180807_161725.jpg
IMG_20180807_161707.jpg
IMG_20180807_161613.jpg

唱片名称:流淌的歌声真情依旧CD1
唱片艺人:梦之旅合唱团
资源格式:WAV
唱片年份:2002
唱片版权:环球唱片
唱片出版:长春电影制片厂银声音像出版社
ISRC CN-D16-02-362-00/A.J6
抓取工具:EAC
简介:
珍品音乐,像小河般淌水,它有着清晨露珠般的清澈,有着夜色般的朦胧,听着它.....让你进入心境如梦的境界。
最想听的声音,最隽永的音符,真情依旧第七季,给我听不厌的感觉。
曲目名称:
CD1
01 蒙古人
02 织网歌
03 篱笆墙的影子
04 马铃儿响来玉鸟儿唱
05 牧羊姑娘
06 拉兹之歌

07 流星雨
08 两颗小星星
09 高天上流云
10 毛主席的话儿记在我们的心里
11 小城故事
12 田野静悄悄
13 耶尼亚女郎
14 北京的金山上
15 把一切献给党

CD2
01 故乡的云
02 九寨之子
03 在水一方
04 远方的客人请你留下来



05 敖包相会
06 花香鼓舞
07 你看你看月亮的脸
08 春天年年来到人家
09 乡恋
10 照镜子
11 西波涅
12 冰山上的雪莲
13 祝福毛主席万寿无疆
14 我们生活充满阳光
15 党旗飘飘

链接:https://pan.baidu.com/s/1mf4I5QXI0OZXAgFSuFwWAA 密码:
游客,如果您要查看本帖隐藏内容请回复

链接:https://pan.baidu.com/s/1FDeHjcwjGw4_7qYDlgXRFw 密码:
游客,如果您要查看本帖隐藏内容请回复


评分

已有 1 人评分威望 金币 贡献 收起 理由
WSAN + 16 + 32 + 16 赞一个!

总评分: 威望 + 16 金币 + 32 贡献 + 16 查看全部评分

回复

使用道具 举报

签到天数: 32 天

[LV.5]常住居民I

25

主题

99

帖子

1308

积分

新手上路

Rank: 1

积分
1308
威望
216
金币
688
贡献
89
 楼主| 发表于 2018-8-7 19:07:25 | 显示全部楼层
Exact Audio Copy V1.3 from 2. September 2016

EAC 抓取日志文件从13. 七月 2018, 13:57

梦之旅合唱团 / 流淌的歌声CD1

使用驱动器  :ASUS    DVD-E818A9T   b   Adapter: 1  ID: 0

读取模式      : 可靠Secure
使用精确流     : 是
清空音频缓存    : 否
使用 C2 指示器 : 否

组合读写偏移校正:             : 0
读取 Lead-In 和 Lead-Out : 否
用静音填充抓取中丢失偏移的采样       : 是
去除首尾静音块               : 否
在CRC 计算中使用了空样本       : 是
已用接口                  : Win NT 及 2000 本地 Win32 接口

所用输出模式: : 内部 WAV 函数
样本格式    : 44.100 Hz; 16 Bit; 立体声


已抓取 CD 的 TOC

     音轨 |    起始    |    长度    |  起始扇区  |  结束扇区  
    --------------------------------------------
      1 |  0:00.00 |  4:09.56 |      0 |  18730
      2 |  4:09.56 |  3:43.44 |  18731 |  35499
      3 |  7:53.25 |  4:17.50 |  35500 |  54824
      4 | 12:11.00 |  3:56.24 |  54825 |  72548
      5 | 16:07.24 |  3:54.39 |  72549 |  90137
      6 | 20:01.63 |  3:30.00 |  90138 | 105887
      7 | 23:31.63 |  4:24.56 | 105888 | 125743
      8 | 27:56.44 |  4:24.45 | 125744 | 145588
      9 | 32:21.14 |  4:16.16 | 145589 | 164804
     10 | 36:37.30 |  4:32.27 | 164805 | 185231
     11 | 41:09.57 |  4:14.62 | 185232 | 204343
     12 | 45:24.44 |  3:32.12 | 204344 | 220255
     13 | 48:56.56 |  3:32.29 | 220256 | 236184
     14 | 52:29.10 |  3:47.71 | 236185 | 253280
     15 | 56:17.06 |  3:57.44 | 253281 | 271099


范围状态及错误

已选择范围

     文件名 C:\Users\1\Documents\梦之旅合唱团 - 流淌的歌声CD1.wav

     峰值电平 95.5 %
     抓取速度 6.9 X
     范围质量 100.0 %
     复制 CRC 53CB7D99
     复制成功

没有错误发生

状态报告结尾

---- CUETools DB Plugin V2.1.6

[CTDB TOCID: Doxs0AwGGHcSO71GV9uc4gXAnIQ-] found
Submit result: Doxs0AwGGHcSO71GV9uc4gXAnIQ- has been confirmed
Track | CTDB Status
  1   | (11/11) Accurately ripped
  2   | (11/11) Accurately ripped
  3   | (11/11) Accurately ripped
  4   | (11/11) Accurately ripped
  5   | (11/11) Accurately ripped
  6   | (10/11) Accurately ripped
  7   | (10/11) Accurately ripped
  8   | (10/11) Accurately ripped
  9   | (11/11) Accurately ripped
10   | (11/11) Accurately ripped
11   | (10/11) Accurately ripped
12   | (11/11) Accurately ripped
13   | (10/11) Accurately ripped
14   | (11/11) Accurately ripped
15   | (11/11) Accurately ripped

回复

使用道具 举报

签到天数: 32 天

[LV.5]常住居民I

25

主题

99

帖子

1308

积分

新手上路

Rank: 1

积分
1308
威望
216
金币
688
贡献
89
 楼主| 发表于 2018-8-7 19:09:45 | 显示全部楼层
Exact Audio Copy V1.3 from 2. September 2016

EAC 抓取日志文件从13. 七月 2018, 14:20

梦之旅合唱团 / 流淌的歌声CD2

使用驱动器  :ASUS    DVD-E818A9T   b   Adapter: 1  ID: 0

读取模式      : 可靠Secure
使用精确流     : 是
清空音频缓存    : 否
使用 C2 指示器 : 否

组合读写偏移校正:             : 0
读取 Lead-In 和 Lead-Out : 否
用静音填充抓取中丢失偏移的采样       : 是
去除首尾静音块               : 否
在CRC 计算中使用了空样本       : 是
已用接口                  : Win NT 及 2000 本地 Win32 接口

所用输出模式: : 内部 WAV 函数
样本格式    : 44.100 Hz; 16 Bit; 立体声


已抓取 CD 的 TOC

     音轨 |    起始    |    长度    |  起始扇区  |  结束扇区  
    --------------------------------------------
      1 |  0:00.00 |  4:53.30 |      0 |  22004
      2 |  4:53.30 |  3:39.45 |  22005 |  38474
      3 |  8:33.00 |  4:24.18 |  38475 |  58292
      4 | 12:57.18 |  3:57.45 |  58293 |  76112
      5 | 16:54.63 |  3:58.51 |  76113 |  94013
      6 | 20:53.39 |  4:10.42 |  94014 | 112805
      7 | 25:04.06 |  3:48.45 | 112806 | 129950
      8 | 28:52.51 |  4:04.33 | 129951 | 148283
      9 | 32:57.09 |  3:58.24 | 148284 | 166157
     10 | 36:55.33 |  3:29.12 | 166158 | 181844
     11 | 40:24.45 |  4:11.21 | 181845 | 200690
     12 | 44:35.66 |  4:43.51 | 200691 | 221966
     13 | 49:19.42 |  4:14.66 | 221967 | 241082
     14 | 53:34.33 |  4:27.36 | 241083 | 261143
     15 | 58:01.69 |  4:14.12 | 261144 | 280205


范围状态及错误

已选择范围

     文件名 C:\Users\1\Documents\梦之旅合唱团 - 流淌的歌声CD2.wav

     峰值电平 96.5 %
     抓取速度 3.1 X
     范围质量 99.9 %
     复制 CRC EDB9C631
     复制成功

没有错误发生

状态报告结尾

---- CUETools DB Plugin V2.1.6

[CTDB TOCID: SQRYHhIoG4SslmY9y3d50UcbnbM-] disk not present in database
Submit result: SQRYHhIoG4SslmY9y3d50UcbnbM- has been uploaded

回复

使用道具 举报

签到天数: 182 天

[LV.7]常住居民III

1

主题

594

帖子

1460

积分

新手上路

Rank: 1

积分
1460
威望
395
金币
71
贡献
5
发表于 2018-8-8 08:04:34 | 显示全部楼层
喜欢的合唱组合,谢谢分享
回复

使用道具 举报

签到天数: 98 天

[LV.6]常住居民II

1

主题

190

帖子

384

积分

新手上路

Rank: 1

积分
384
威望
87
金币
20
贡献
0
发表于 2018-8-8 10:43:24 | 显示全部楼层
一组怀旧的传送的歌曲,郎朗耳熟,谢谢楼主分享!
回复

使用道具 举报

签到天数: 232 天

[LV.7]常住居民III

1

主题

676

帖子

1977

积分

新手上路

Rank: 1

积分
1977
威望
410
金币
480
贡献
1
发表于 2018-8-8 11:39:33 | 显示全部楼层
较为喜欢的一个发烧组合,演绎了不少经典作品
回复

使用道具 举报

签到天数: 119 天

[LV.6]常住居民II

31

主题

672

帖子

5336

积分

中级会员

Rank: 3Rank: 3

积分
5336
威望
947
金币
2551
贡献
219
发表于 2018-8-8 17:20:20 | 显示全部楼层
回味一下【流淌的歌声】正版是广州太平洋出版的。谢谢辛苦制作。
回复

使用道具 举报

签到天数: 60 天

[LV.6]常住居民II

1

主题

205

帖子

1123

积分

新手上路

Rank: 1

积分
1123
威望
428
金币
62
贡献
0
发表于 5 天前 | 显示全部楼层
非常不错的一个组合!谢谢分享!
回复

使用道具 举报

签到天数: 24 天

[LV.4]偶尔看看III

1

主题

42

帖子

77

积分

新手上路

Rank: 1

积分
77
威望
17
金币
1
贡献
0
发表于 5 天前 | 显示全部楼层
有几首歌很喜欢,楼主辛苦了
回复

使用道具 举报

您需要登录后才可以回帖 登录 | 立即注册

本版积分规则

数字音乐论坛

Archiver|手机版|小黑屋|数字音乐论坛 ( 津ICP备09009336号-1 )

GMT+8, 2018-8-17 00:37 , Processed in 0.153119 second(s), 29 queries .

Powered by Discuz! X3.4

© 2008-2018 Comsenz Inc.|上网要文明 发言要理性 本站禁灌水

快速回复 返回顶部 返回列表