开启辅助访问 天气预报 收藏本站

数字音乐论坛

 找回密码
 立即注册
快捷导航
查看: 1551|回复: 17

[刘清池 - 特殊旋律演奏曲12(金桦唱片)][WAV/512MB][百度]

[复制链接]

签到天数: 50 天

[LV.5]常住居民I

13

主题

100

帖子

2298

积分

注册会员

Rank: 2

积分
2298
威望
247
金币
1605
贡献
94
发表于 2018-9-15 19:57:09 | 显示全部楼层 |阅读模式
专辑名称:特殊旋律演奏曲12
艺术家:刘清池
发行公司:金桦唱片有限公司
唱片编号:WCD-0012

曲目(红字为试听曲目):

01.行船人的心声
02.一样爱你
03.能不能留住你
04.怎能再回头
05.把心留住
06.不忍别离
07.神雕侠侣
08.昨夜星辰
09.海角天涯
10.雨中鸟
11.港都恋歌
12.对你怀念特别多
13.凤阳花鼓
14.倚天屠龙记
15.等也等忘也忘
16.走过岁月

游客,如果您要查看本帖隐藏内容请回复


刘清池提取码.rar (164 Bytes, 下载次数: 21, 售价: 10 金币)

评分

参与人数 1威望 +8 金币 +16 贡献 +8 收起 理由
WSAN + 8 + 16 + 8 很给力!

查看全部评分

回复

使用道具 举报

签到天数: 50 天

[LV.5]常住居民I

13

主题

100

帖子

2298

积分

注册会员

Rank: 2

积分
2298
威望
247
金币
1605
贡献
94
 楼主| 发表于 2018-9-15 19:57:41 | 显示全部楼层
Exact Audio Copy V1.3 from 2. September 2016

EAC 抓取日志文件从15. 九月 2018, 13:21

刘清池 / 特殊旋律演奏曲12

使用驱动器  :PIONEER DVD-RW  DVR-221L   Adapter: 1  ID: 0

读取模式      : 可靠Secure
使用精确流     : 是
清空音频缓存    : 是
使用 C2 指示器 : 否

读取偏移校正:               : 0
读取 Lead-In 和 Lead-Out : 否
用静音填充抓取中丢失偏移的采样       : 是
去除首尾静音块               : 否
在CRC 计算中使用了空样本       : 是
已用接口                  : Win NT 及 2000 本地 Win32 接口

所用输出模式: : 内部 WAV 函数
样本格式    : 44.100 Hz; 16 Bit; 立体声


已抓取 CD 的 TOC

     音轨 |    起始    |    长度    |  起始扇区  |  结束扇区  
    --------------------------------------------
      1 |  0:00.00 |  3:01.55 |      0 |  13629
      2 |  3:01.55 |  3:24.22 |  13630 |  28951
      3 |  6:26.02 |  3:08.55 |  28952 |  43106
      4 |  9:34.57 |  3:46.50 |  43107 |  60106
      5 | 13:21.32 |  3:30.65 |  60107 |  75921
      6 | 16:52.22 |  3:20.48 |  75922 |  90969
      7 | 20:12.70 |  3:08.05 |  90970 | 105074
      8 | 23:21.00 |  3:12.50 | 105075 | 119524
      9 | 26:33.50 |  3:15.17 | 119525 | 134166
     10 | 29:48.67 |  2:51.58 | 134167 | 147049
     11 | 32:40.50 |  2:48.02 | 147050 | 159651
     12 | 35:28.52 |  3:07.18 | 159652 | 173694
     13 | 38:35.70 |  2:50.15 | 173695 | 186459
     14 | 41:26.10 |  2:48.47 | 186460 | 199106
     15 | 44:14.57 |  3:29.13 | 199107 | 214794
     16 | 47:43.70 |  3:02.70 | 214795 | 228514


范围状态及错误

已选择范围

     文件名 F:\CD抓轨\刘清池 - 特殊旋律演奏曲12.wav

     峰值电平 90.9 %
     抓取速度 6.8 X
     范围质量 100.0 %
     复制 CRC FEBF2A80
     复制成功

没有错误发生

状态报告结尾

---- CUETools DB Plugin V2.1.6

[CTDB TOCID: IamxLoFjyRSA895cduasNT7xZSw-] disk not present in database
Submit result: IamxLoFjyRSA895cduasNT7xZSw- has been uploaded

回复

使用道具 举报

签到天数: 481 天

[LV.9]以坛为家II

16

主题

667

帖子

2037

积分

注册会员

Rank: 2

积分
2037
威望
189
金币
987
贡献
5
发表于 2018-9-15 23:28:09 | 显示全部楼层
非常动听的好音乐, 试听曲非常好听 感谢 经典之声楼主 分享刘清池 特殊演奏曲专辑。
回复

使用道具 举报

签到天数: 548 天

[LV.9]以坛为家II

57

主题

825

帖子

8952

积分

金牌会员

Rank: 6Rank: 6

积分
8952
威望
878
金币
6132
贡献
239
发表于 2018-9-16 07:01:56 | 显示全部楼层
刘清池的作品太多了 旋律优美 使人听起来 百听不厌 赞经典之声的推荐
回复

使用道具 举报

签到天数: 471 天

[LV.9]以坛为家II

1

主题

1293

帖子

2906

积分

注册会员

Rank: 2

积分
2906
威望
798
金币
12
贡献
5
发表于 2018-9-16 07:33:38 | 显示全部楼层
很喜欢听电子琴音乐,谢谢分享
回复

使用道具 举报

签到天数: 556 天

[LV.9]以坛为家II

59

主题

1225

帖子

1万

积分

论坛元老

Rank: 8Rank: 8

积分
10599
威望
1675
金币
5454
贡献
565

发帖高手勋章

发表于 2018-9-16 07:36:24 | 显示全部楼层
谢谢楼主分享,很喜欢!
回复

使用道具 举报

签到天数: 482 天

[LV.9]以坛为家II

13

主题

854

帖子

2504

积分

注册会员

Rank: 2

积分
2504
威望
474
金币
633
贡献
69
发表于 2018-9-16 09:25:54 | 显示全部楼层
刘清池的作品张张好听  谢谢楼主的分享
回复

使用道具 举报

签到天数: 19 天

[LV.4]偶尔看看III

1

主题

60

帖子

232

积分

新手上路

Rank: 1

积分
232
威望
39
金币
94
贡献
0
发表于 2018-9-16 13:05:55 | 显示全部楼层
感谢楼主,青春永远伴随你
回复

使用道具 举报

签到天数: 282 天

[LV.8]以坛为家I

1

主题

420

帖子

1118

积分

新手上路

Rank: 1

积分
1118
威望
134
金币
430
贡献
0
发表于 2018-9-16 13:37:17 | 显示全部楼层
收了很多刘大师的作品,品种繁多,都有些胡涂了,但这版金桦唱片发行的“特殊旋律演奏曲12”演奏风格和其它版的不同,大气,动听。谢谢分享!
回复

使用道具 举报

签到天数: 422 天

[LV.9]以坛为家II

1

主题

632

帖子

1117

积分

新手上路

Rank: 1

积分
1117
威望
208
金币
69
贡献
0
发表于 2018-9-16 15:27:01 | 显示全部楼层
刘清池音乐大师的作品都值得收藏,感谢分享!
回复

使用道具 举报

您需要登录后才可以回帖 登录 | 立即注册

本版积分规则

Archiver|手机版|小黑屋|数字音乐论坛 ( 津ICP备09009336号-1 )

GMT+8, 2019-7-23 09:33 , Processed in 0.375000 second(s), 55 queries .

Powered by Discuz! X3.4

© 2008-2019 上网要文明 发言要理性 本站禁灌水

快速回复 返回顶部 返回列表