开启辅助访问 收藏本站

数字音乐论坛

 找回密码
 立即注册
查看: 784|回复: 18

[原创] [刘清池 - 怀念音乐演奏2][WAV/549MB][百度]

[复制链接]

签到天数: 139 天

[LV.7]常住居民III

445

主题

594

帖子

6万

积分

管理员

Rank: 9Rank: 9Rank: 9

积分
67739
威望
7514
金币
48007
贡献
3755

斑竹专用勋章

发表于 2018-10-2 12:09:00 | 显示全部楼层 |阅读模式
1.JPG

劉清池  懷念音樂演奏2

金樺唱片有限公司發行(局版臺音字第0533號)

曲目專輯

01.往事只能回憶
02.讀你
03.埋葬愛情

04.風凄淒雨綿綿
05.只要你記得
06.往事不堪回首
07.未識綺羅香
08.為君愁
09.濛濛雨
10.情難忘
11.飛越萬里情
12.一縷相思情
13.雨夜花
14.重相逢
15.紅睡蓮
16.一樣愛你
游客,如果您要查看本帖隐藏内容请回复

2.JPG
3.JPG

刘清池《怀念音乐演奏2》密码.rar

142 Bytes, 下载次数: 19

售价: 30 金币  [记录]

评分

已有 1 人评分威望 金币 贡献 收起 理由
WSAN + 8 + 16 + 8 很给力!祝Z版节日快乐!

总评分: 威望 + 8 金币 + 16 贡献 + 8 查看全部评分

回复

使用道具 举报

签到天数: 139 天

[LV.7]常住居民III

445

主题

594

帖子

6万

积分

管理员

Rank: 9Rank: 9Rank: 9

积分
67739
威望
7514
金币
48007
贡献
3755

斑竹专用勋章

 楼主| 发表于 2018-10-2 12:09:37 | 显示全部楼层
Exact Audio Copy V1.3 from 2. September 2016

EAC 抓取日志文件从2. 十月 2018, 11:29

劉清池 / 懷念音樂演奏2

使用驱动器  :TSSTcorpCDW/DVD SN-M242D   Adapter: 0  ID: 0

读取模式      : 可靠Secure
使用精确流     : 是
清空音频缓存    : 是
使用 C2 指示器 : 否

读取偏移校正:               : 6
读取 Lead-In 和 Lead-Out : 否
用静音填充抓取中丢失偏移的采样       : 是
去除首尾静音块               : 否
在CRC 计算中使用了空样本       : 是
已用接口                  : 已安装外部 ASPI 接口

所用输出模式: : 内部 WAV 函数
样本格式    : 44.100 Hz; 16 Bit; 立体声


已抓取 CD 的 TOC

     音轨 |    起始    |    长度    |  起始扇区  |  结束扇区  
    --------------------------------------------
      1 |  0:00.00 |  3:45.13 |      0 |  16887
      2 |  3:45.13 |  3:31.45 |  16888 |  32757
      3 |  7:16.58 |  3:28.50 |  32758 |  48407
      4 | 10:45.33 |  3:27.12 |  48408 |  63944
      5 | 14:12.45 |  2:59.00 |  63945 |  77369
      6 | 17:11.45 |  3:28.50 |  77370 |  93019
      7 | 20:40.20 |  3:51.50 |  93020 | 110394
      8 | 24:31.70 |  3:30.13 | 110395 | 126157
      9 | 28:02.08 |  3:23.55 | 126158 | 141437
     10 | 31:25.63 |  3:08.57 | 141438 | 155594
     11 | 34:34.45 |  2:29.30 | 155595 | 166799
     12 | 37:04.00 |  3:28.13 | 166800 | 182412
     13 | 40:32.13 |  3:02.20 | 182413 | 196082
     14 | 43:34.33 |  2:52.22 | 196083 | 209004
     15 | 46:26.55 |  3:21.00 | 209005 | 224079
     16 | 49:47.55 |  3:21.73 | 224080 | 239227


范围状态及错误

已选择范围

     文件名 C:\Users\hp\Desktop\zjhjr\刘清池\劉清池 - 懷念音樂演奏2.wav

     峰值电平 100.0 %
     抓取速度 1.9 X
     范围质量 100.0 %
     复制 CRC BBB36C0B
     复制成功

没有错误发生

状态报告结尾

---- CUETools DB Plugin V2.1.6

[CTDB TOCID: d2iSsc_dfFC8QgA.6f4ljBSHrOg-] disk not present in database
Submit result: d2iSsc_dfFC8QgA.6f4ljBSHrOg- has been uploaded
回复

使用道具 举报

签到天数: 329 天

[LV.8]以坛为家I

11

主题

599

帖子

1745

积分

新手上路

Rank: 1

积分
1745
威望
348
金币
391
贡献
59
发表于 2018-10-2 14:34:35 | 显示全部楼层
感谢老大分享劉清池  懷念音樂演奏,值得收藏。
回复

使用道具 举报

签到天数: 27 天

[LV.4]偶尔看看III

6

主题

66

帖子

1081

积分

新手上路

Rank: 1

积分
1081
威望
133
金币
697
贡献
47
发表于 2018-10-2 15:35:49 | 显示全部楼层
刘清池大师的演奏曲一级棒收下这一集了
回复

使用道具 举报

签到天数: 360 天

[LV.8]以坛为家I

57

主题

613

帖子

7967

积分

高级会员

Rank: 4

积分
7967
威望
856
金币
5403
贡献
239
发表于 2018-10-2 16:20:43 | 显示全部楼层
zjhjr版版这套不错 不知道有几集? 祝版版节日快乐
回复

使用道具 举报

签到天数: 341 天

[LV.8]以坛为家I

1

主题

516

帖子

1799

积分

新手上路

Rank: 1

积分
1799
威望
172
金币
939
贡献
0
发表于 2018-10-2 18:12:46 | 显示全部楼层
期待老大发表其他余集,本人认为这套系列超过刘清池其它套装,十分感谢。
回复

使用道具 举报

签到天数: 341 天

[LV.8]以坛为家I

1

主题

516

帖子

1799

积分

新手上路

Rank: 1

积分
1799
威望
172
金币
939
贡献
0
发表于 2018-10-2 18:13:14 | 显示全部楼层
期待老大发表其他余集,本人认为这套系列超过刘清池其它套装,十分感谢。
回复

使用道具 举报

签到天数: 298 天

[LV.8]以坛为家I

9

主题

461

帖子

1532

积分

新手上路

Rank: 1

积分
1532
威望
166
金币
734
贡献
5
发表于 2018-10-2 23:39:21 | 显示全部楼层
感谢zjhjr版主分享劉清池  懷念音樂演奏,值得收藏精品音乐。
回复

使用道具 举报

签到天数: 234 天

[LV.7]常住居民III

1

主题

264

帖子

663

积分

新手上路

Rank: 1

积分
663
威望
29
金币
341
贡献
0
发表于 2018-10-3 11:11:07 | 显示全部楼层
謝謝分享劉清池

评分

已有 1 人评分金币 收起 理由
WSAN -20

总评分: 金币 -20 查看全部评分

回复

使用道具 举报

签到天数: 139 天

[LV.7]常住居民III

1

主题

271

帖子

817

积分

新手上路

Rank: 1

积分
817
威望
128
金币
290
贡献
0
发表于 2018-10-3 20:18:40 | 显示全部楼层
在国庆节里能收到这么好的专辑,真有福气!
回复

使用道具 举报

您需要登录后才可以回帖 登录 | 立即注册

本版积分规则

数字音乐论坛

Archiver|手机版|小黑屋|数字音乐论坛 ( 津ICP备09009336号-1 )

GMT+8, 2018-12-14 11:03 , Processed in 1.312000 second(s), 57 queries .

Powered by Discuz! X3.4

© 2001-2017 Comsenz Inc.

快速回复 返回顶部 返回列表