开启辅助访问 天气预报 收藏本站

数字音乐论坛

 找回密码
 立即注册
查看: 2848|回复: 28

[原创][成方圆《一路风情》][CD/wav/461M][百度] (套图)

[复制链接] TA的其它主题

签到天数: 267 天

[LV.8]以坛为家I

16

主题

861

帖子

2762

积分

注册会员

Rank: 2

积分
2762
威望
839
金币
79
贡献
144
发表于 2017-10-18 08:36:09 | 显示全部楼层 |阅读模式
本帖最后由 dongguangzhao 于 2017-10-18 11:13 编辑

《成方圆:一路风情》金牌制作人鲍比达倾情力作,成方圆原创唯美歌词令人陶醉。“一路风情嘉年华”心有多远,就能走多远,唱出和写出了行者的自在与洒脱。华语乐坛金牌音乐人鲍比达倾力制作,出手深具水准的编曲和色彩丰满的配器,汇聚国外顶尖乐手实录,远赴美国制作后期母带,确保纯粹HI-FI品质。专辑曲风涵盖Jazz、Latin、Swing、Tango、Chanson、New Age等元素,呈现歌者宽广的音乐视野、多元化的音乐品味以及游刃有余的掌控能力。专辑内容涉及爱情-永恒的主题、亲情-生命的支柱、环保-现代人的历史责任、摄影-向传奇前辈致敬、旅行-自由的足迹等,字里行间随处可见的意象似一帧帧画面,远远近近透视着歌者。


  成方圆全程策划,精心选曲,以自己独有的方式和无可替代的音色,将世界音乐经典全新演绎,予人惊喜。成方圆才情作词,真实流露人生历练和内心流年。成方圆执掌镜头,取景一路上的世态万象、风物人情,百分百私家体验和个人角度。


  没有什么十年磨一剑,也没有什么千呼万唤始出来,一切随心顺意,从容待之,以自己的理念,认真诚心地做一张好唱片,成方圆一直相信:好歌不怕老,好听是王道。


  一路风情,一次绮丽的音乐之旅,值得聆听。一路风情,一段温煦的心灵之旅,值得阅读。


1.png

01 思念成殇
02 流年之城
03 一路风情嘉年华
04 天堂玫瑰
05 最后的冰川
06 谁
07 自由的滋味
08 三里屯的CORAZON
09 传奇卡帕
10 What A Wonderful World






音频链接
游客,如果您要查看本帖隐藏内容请回复


套图链接
游客,如果您要查看本帖隐藏内容请回复


音频密码
音频密码.zip (167 Bytes, 下载次数: 40, 售价: 5 金币)

评分

参与人数 1金币 +16 收起 理由
四季歌 + 16

查看全部评分

回复

使用道具 举报

签到天数: 267 天

[LV.8]以坛为家I

16

主题

861

帖子

2762

积分

注册会员

Rank: 2

积分
2762
威望
839
金币
79
贡献
144
 楼主| 发表于 2017-10-18 08:37:28 | 显示全部楼层
Exact Audio Copy V1.1 from 23. June 2015
EAC 抓取日志文件从4. 五月 2016, 19:01
未知艺术家 / 未知标题
使用驱动器  :HL-DT-STDVD-ROM DH30N   Adapter: 1  ID: 0
读取模式      : 可靠Secure
使用精确流     : 是
清空音频缓存    : 是
使用 C2 指示器 : 否


读取偏移校正:               : 0
读取 Lead-In 和 Lead-Out : 否
用静音填充抓取中丢失偏移的采样       : 是
去除首尾静音块               : 否
在CRC 计算中使用了空样本       : 是
已用接口                  : Win NT 及 2000 本地 Win32 接口
所用输出模式: : 内部 WAV 函数
样本格式    : 44.100 Hz; 16 Bit; 立体声
已抓取 CD 的 TOC
     音轨 |    起始    |    长度    |  起始扇区  |  结束扇区  
    --------------------------------------------
      1 |  0:00.00 |  4:40.21 |      0 |  21020
      2 |  4:40.21 |  4:30.71 |  21021 |  41341
      3 |  9:11.17 |  4:09.71 |  41342 |  60087
      4 | 13:21.13 |  5:15.16 |  60088 |  83728
      5 | 18:36.29 |  4:32.14 |  83729 | 104142
      6 | 23:08.43 |  3:28.67 | 104143 | 119809
      7 | 26:37.35 |  4:21.57 | 119810 | 139441
      8 | 30:59.17 |  4:56.63 | 139442 | 161704
      9 | 35:56.05 |  3:56.49 | 161705 | 179453
     10 | 39:52.54 |  4:43.48 | 179454 | 200726
范围状态及错误
已选择范围
     文件名 C:\Users\jkb\Desktop\未知艺术家 - 未知标题.wav
    峰值电平 98.9 %
     抓取速度 5.6 X
     范围质量 100.0 %
     复制 CRC 5E0A75FC
     复制成功
没有错误发生
状态报告结尾
回复

使用道具 举报

签到天数: 161 天

[LV.7]常住居民III

1

主题

371

帖子

1035

积分

新手上路

Rank: 1

积分
1035
威望
203
金币
258
贡献
0
发表于 2017-10-18 08:40:20 | 显示全部楼层
很久没听她的歌了,今天又看到一张没听过的专辑,非常谢谢楼主
回复

使用道具 举报

签到天数: 14 天

[LV.3]偶尔看看II

3

主题

428

帖子

1198

积分

禁止访问

积分
1198
威望
375
金币
20
贡献
0
发表于 2017-10-18 08:45:43 | 显示全部楼层
提示: 作者被禁止或删除 内容自动屏蔽
回复

使用道具 举报

签到天数: 739 天

[LV.9]以坛为家II

42

主题

998

帖子

2520

积分

注册会员

Rank: 2

积分
2520
威望
241
金币
1040
贡献
0
发表于 2017-10-18 08:47:05 | 显示全部楼层
没听过的CD,支持楼主分享!
回复

使用道具 举报

签到天数: 466 天

[LV.9]以坛为家II

1

主题

836

帖子

2973

积分

注册会员

Rank: 2

积分
2973
威望
352
金币
1430
贡献
3
发表于 2017-10-18 09:09:40 | 显示全部楼层
难得的才女啊,能创作,会乐器,唱得又好~
回复

使用道具 举报

签到天数: 742 天

[LV.9]以坛为家II

1

主题

1504

帖子

3572

积分

中级会员

Rank: 3Rank: 3

积分
3572
威望
644
金币
780
贡献
0
发表于 2017-10-18 10:46:00 | 显示全部楼层
成方圆的CD不多见,感觉她对音乐有一定追求的。
回复

使用道具 举报

签到天数: 689 天

[LV.9]以坛为家II

3

主题

1728

帖子

3972

积分

中级会员

Rank: 3Rank: 3

积分
3972
威望
1039
金币
158
贡献
8
发表于 2017-10-18 10:52:49 | 显示全部楼层
成方圆的作品收藏的不多,感谢!
回复

使用道具 举报

签到天数: 171 天

[LV.7]常住居民III

12

主题

251

帖子

2033

积分

注册会员

Rank: 2

积分
2033
威望
157
金币
1440
贡献
28
发表于 2017-10-18 11:26:11 | 显示全部楼层
制作的非常精美
回复

使用道具 举报

签到天数: 193 天

[LV.7]常住居民III

1

主题

768

帖子

1917

积分

禁止访问

积分
1917
威望
561
金币
27
贡献
0
发表于 2017-10-18 12:19:35 | 显示全部楼层
提示: 作者被禁止或删除 内容自动屏蔽
回复

使用道具 举报

您需要登录后才可以回帖 登录 | 立即注册

本版积分规则

Title - Artist
0:00

    Archiver|手机版|小黑屋|数字音乐论坛 ( 津ICP备09009336号-1 )

    GMT+8, 2020-1-24 19:01 , Processed in 0.687632 second(s), 37 queries .

    Powered by Discuz! X3.4 Licensed

    Copyright © 2001-2020, Tencent Cloud.

    快速回复 返回顶部 返回列表