请选择 进入手机版 | 继续访问电脑版
查看: 502|回复: 16

[分享] [谢采妘《为何那么傻》][WAV/462MB][百度]

[复制链接]

签到天数: 24 天

[LV.4]偶尔看看III

10

主题

49

帖子

2051

积分

注册会员

Rank: 2

积分
2051
威望
187
金币
1528
贡献
100
发表于 2017-10-18 14:27:03 | 显示全部楼层 |阅读模式
本帖最后由 WSAN 于 2017-10-18 17:44 编辑

謝采妘《爲何那麽傻》01.jpg
謝采妘《爲何那麽傻 是否可以》

【唱片公司:豐榮音樂 】
【唱片編號:RM-HYC-1526】
【發行時間:2015年】
【資源格式:WAV+CUE】


專輯曲目:

01.富貴浮雲

02.爲何那麽傻
03.是否可以
04.烏溜溜
05.幾度又幾度
06.三月的夢
07.OK我愛你
08.三個夢
09.甜蜜蜜
10.情人再見
11.路邊野花不要采/後悔愛上你/美酒加咖啡
12.CHINA MAN CHINA GIRL
謝采妘《爲何那麽傻》03.jpg 謝采妘《爲何那麽傻》02.jpg


抓轨记录:
Exact Audio Copy V1.0 beta 3 from 29. August 2011

EAC extraction logfile from 11. June 2015, 16:07

謝采妘 / 何那麽傻

Used drive  : HL-DT-STDVD-ROM GDRH20N   Adapter: 2  ID: 1

Read mode               : Secure
Utilize accurate stream : Yes
Defeat audio cache      : Yes
Make use of C2 pointers : No

Read offset correction                      : 102
Overread into Lead-In and Lead-Out          : No
Fill up missing offset samples with silence : Yes
Delete leading and trailing silent blocks   : No
Null samples used in CRC calculations       : Yes
Used interface                              : Native Win32 interface for Win NT & 2000

Used output format : Internal WAV Routines
Sample format      : 44.100 Hz; 16 Bit; Stereo


TOC of the extracted CD

     Track |   Start  |  Length  | Start sector | End sector
    ---------------------------------------------------------
        1  |  0:00.00 |  3:51.26 |         0    |    17350   
        2  |  3:51.26 |  5:01.47 |     17351    |    39972   
        3  |  8:52.73 |  4:12.15 |     39973    |    58887   
        4  | 13:05.13 |  3:16.74 |     58888    |    73661   
        5  | 16:22.12 |  3:30.69 |     73662    |    89480   
        6  | 19:53.06 |  3:06.23 |     89481    |   103453   
        7  | 22:59.29 |  4:05.67 |    103454    |   121895   
        8  | 27:05.21 |  3:17.28 |    121896    |   136698   
        9  | 30:22.49 |  3:29.67 |    136699    |   152440   
       10  | 33:52.41 |  3:30.44 |    152441    |   168234   
       11  | 37:23.10 |  3:29.64 |    168235    |   183973   
       12  | 40:52.74 |  4:56.27 |    183974    |   206200   


Range status and errors

Selected range

     Filename G:\TEMP\謝采妘-爲何那麽傻\謝采妘-爲何那麽傻.wav

     Peak level 100.0 %
     Extraction speed 2.1 X
     Range quality 100.0 %
     Copy CRC DE2DE0FB
     Copy OK

No errors occurred


AccurateRip summary

Track  1  not present in database
Track  2  not present in database
Track  3  not present in database
Track  4  not present in database
Track  5  not present in database
Track  6  not present in database
Track  7  not present in database
Track  8  not present in database
Track  9  not present in database
Track 10  not present in database
Track 11  not present in database
Track 12  not present in database

None of the tracks are present in the AccurateRip database

End of status report

==== Log checksum F6D65B70FFD66BA542A011AC1CFCB278D51D8280FFADF0C0E0D4C8184C5690BE ====

下载地址:
游客,如果您要查看本帖隐藏内容请回复


下载密码.rar (95 Bytes, 下载次数: 6, 售价: 20 金币)

评分

参与人数 1威望 +4 金币 +8 贡献 +4 收起 理由
zjhjr + 4 + 8 + 4 赞一个!

查看全部评分

回复

使用道具 举报

签到天数: 122 天

[LV.7]常住居民III

1

主题

593

帖子

1571

积分

新手上路

Rank: 1

积分
1571
威望
386
金币
206
贡献
0
发表于 2017-10-18 15:04:33 | 显示全部楼层
这张专辑很精彩,虽然已经有了,但还是要回复一下,表示喜爱!
回复

使用道具 举报

签到天数: 76 天

[LV.6]常住居民II

1

主题

415

帖子

1276

积分

新手上路

Rank: 1

积分
1276
威望
330
金币
201
贡献
0
发表于 2017-10-18 15:31:07 | 显示全部楼层
谢采妘的歌  
真得好甜好甜啊
谢谢分享哦
回复

使用道具 举报

签到天数: 117 天

[LV.6]常住居民II

1

主题

606

帖子

1762

积分

新手上路

Rank: 1

积分
1762
威望
480
金币
196
贡献
0
发表于 2017-10-18 15:51:55 | 显示全部楼层
很温馨,很甜蜜的专辑,谢谢上传分享。
回复

使用道具 举报

签到天数: 124 天

[LV.7]常住居民III

76

主题

626

帖子

3458

积分

超级版主

Rank: 8Rank: 8

积分
3458
威望
941
金币
716
贡献
224

突出贡献优秀版主荣誉管理

发表于 2017-10-18 17:56:27 | 显示全部楼层
谢谢发帖!但"发帖标题不对~没试听~没CUE~图片没点到帖面上~".这第一帖帮你修正!还望今后发好帖!谢谢~

TITLE "爲何那麽傻"
FILE "謝采妘-爲何那麽傻.wav" WAVE
  TRACK 01 AUDIO
    PERFORMER "謝采妘"
    TITLE "01.富貴浮雲"
    INDEX 01 00:00:00
  TRACK 02 AUDIO
    PERFORMER "謝采妘"
    TITLE "02.爲何那麽傻"
    INDEX 01 03:52:04
  TRACK 03 AUDIO
    PERFORMER "謝采妘"
    TITLE "03.是否可以"
    INDEX 01 08:53:49
  TRACK 04 AUDIO
    PERFORMER "謝采妘"
    TITLE "04.烏溜溜"
    INDEX 01 13:05:65
  TRACK 05 AUDIO
    PERFORMER "謝采妘"
    TITLE "05.幾度又幾度"
    INDEX 01 16:22:66
  TRACK 06 AUDIO
    PERFORMER "謝采妘"
    TITLE "06.三月的夢"
    INDEX 01 19:53:57
  TRACK 07 AUDIO
    PERFORMER "謝采妘"
    TITLE "07.OK我愛你"
    INDEX 01 23:00:04
  TRACK 08 AUDIO
    PERFORMER "謝采妘"
    TITLE "08.三個夢"
    INDEX 01 27:05:73
  TRACK 09 AUDIO
    PERFORMER "謝采妘"
    TITLE "09.甜蜜蜜"
    INDEX 01 30:22:26
  TRACK 10 AUDIO
    PERFORMER "謝采妘"
    TITLE "10.情人再見"
    INDEX 01 33:53:17
  TRACK 11 AUDIO
    PERFORMER "謝采妘"
    TITLE "11.路邊野花不要采/後悔愛上你/美酒加咖啡"
    INDEX 01 37:23:63
  TRACK 12 AUDIO
    PERFORMER "謝采妘"
    TITLE "12.CHINA MAN CHINA GIRL"
    INDEX 01 40:53:53


我新发布了帖子《[台语老歌新奏-高传真音乐3][WAV/531M][百度]》,快来围观吧!
回复

使用道具 举报

签到天数: 4 天

[LV.2]偶尔看看I

3

主题

379

帖子

1041

积分

新手上路

Rank: 1

积分
1041
威望
342
金币
-22
贡献
0
发表于 2017-10-18 19:57:25 | 显示全部楼层
谢谢分享谢彩云的经典歌曲,当年被称作小邓丽君的歌星。
回复

使用道具 举报

签到天数: 107 天

[LV.6]常住居民II

1

主题

394

帖子

1372

积分

新手上路

Rank: 1

积分
1372
威望
276
金币
426
贡献
0
发表于 2017-10-18 20:29:34 | 显示全部楼层
谢谢!楼主!她的声音和嗓音很甜美啊!
回复

使用道具 举报

签到天数: 14 天

[LV.3]偶尔看看II

0

主题

303

帖子

873

积分

禁止访问

积分
873
威望
283
金币
4
贡献
0
发表于 2017-10-19 08:00:34 | 显示全部楼层
提示: 作者被禁止或删除 内容自动屏蔽
回复

使用道具 举报

签到天数: 107 天

0

主题

286

帖子

755

积分

禁止访问

积分
755
威望
236
金币
-3
贡献
0
发表于 2017-10-19 09:29:34 | 显示全部楼层
提示: 作者被禁止或删除 内容自动屏蔽
回复

使用道具 举报

签到天数: 46 天

[LV.5]常住居民I

0

主题

539

帖子

2767

积分

注册会员

Rank: 2

积分
2767
威望
483
金币
1253
贡献
9
发表于 2017-10-19 11:03:11 | 显示全部楼层
谢采妘的歌挺受欢迎,专辑非常的畅销。
回复

使用道具 举报

您需要登录后才可以回帖 登录 | 立即注册

本版积分规则

快速回复 返回顶部 返回列表