开启辅助访问 天气预报 收藏本站

数字音乐论坛

 找回密码
 立即注册
查看: 2963|回复: 29

[原创]思浓思雨《双双飞》[WAV/408M][百度]

[复制链接] TA的其它主题

签到天数: 244 天

[LV.8]以坛为家I

50

主题

1128

帖子

7962

积分

高级会员

Rank: 4

积分
7962
威望
1482
金币
3533
贡献
337
发表于 2017-10-19 19:49:16 | 显示全部楼层 |阅读模式
本帖最后由 WSAN 于 2017-10-19 22:27 编辑

专辑;思浓思雨;双双飞
出版;中国录音录像出版社
时间;1994
编号;JS-006
格式;磁带-WAV
大小;408MB

试听;



目录;
A;
01;双双飞
02;等一个下雨天
03;给你一个梦
04;我是你的幻想吗
05;希望之船
B;
01;我会永远伴随着你
02;月亮
03;美丽的家乡
04;竹马沙沙
05;今宵我们同欢乐
制作;苦人
2017.08.

链接;
游客,如果您要查看本帖隐藏内容请回复



提取码.rar (87 Bytes, 下载次数: 33, 售价: 5 金币)

评分

参与人数 1威望 +8 金币 +16 贡献 +8 收起 理由
WSAN + 8 + 16 + 8

查看全部评分

回复

使用道具 举报

签到天数: 244 天

[LV.8]以坛为家I

50

主题

1128

帖子

7962

积分

高级会员

Rank: 4

积分
7962
威望
1482
金币
3533
贡献
337
 楼主| 发表于 2017-10-19 19:50:57 | 显示全部楼层
本帖最后由 WSAN 于 2017-10-19 20:42 编辑


Image6.jpg
Image7.jpg
Image4.jpg
Image5.jpg
Image12.jpg
Image13.jpg



TITLE "双双飞"
FILE "思浓思雨-双双飞.wav" WAVE
  TRACK 01 AUDIO
    PERFORMER "思浓思雨"
    TITLE "A-01.双双飞"
    INDEX 01 00:00:00
  TRACK 02 AUDIO
    PERFORMER "思浓思雨"
    TITLE "A-02.等一个下雨天"
    INDEX 01 04:07:72
  TRACK 03 AUDIO
    PERFORMER "思浓思雨"
    TITLE "A-03.给你一个梦"
    INDEX 01 08:38:51
  TRACK 04 AUDIO
    PERFORMER "思浓思雨"
    TITLE "A-04.我是你的幻想吗"
    INDEX 01 12:27:12
  TRACK 05 AUDIO
    PERFORMER "思浓思雨"
    TITLE "A-05.希望之船"
    INDEX 01 16:26:23
  TRACK 06 AUDIO
    PERFORMER "思浓思雨"
    TITLE "B-01.我会永远伴随着你"
    INDEX 01 20:36:13
  TRACK 07 AUDIO
    PERFORMER "思浓思雨"
    TITLE "B-02.月亮"
    INDEX 01 24:12:05
  TRACK 08 AUDIO
    PERFORMER "思浓思雨"
    TITLE "B-03.美丽的家乡"
    INDEX 01 27:52:01
  TRACK 09 AUDIO
    PERFORMER "思浓思雨"
    TITLE "B-04.竹马沙沙"
    INDEX 01 31:16:29
  TRACK 10 AUDIO
    PERFORMER "思浓思雨"
    TITLE "B-05.今宵我们同欢乐"
    INDEX 01 36:00:12




回复

使用道具 举报

签到天数: 267 天

[LV.8]以坛为家I

16

主题

861

帖子

2762

积分

注册会员

Rank: 2

积分
2762
威望
839
金币
79
贡献
144
发表于 2017-10-19 19:59:59 | 显示全部楼层
喜欢竹马沙沙 春晚上唱歌的好听呢
回复

使用道具 举报

签到天数: 739 天

[LV.9]以坛为家II

42

主题

998

帖子

2520

积分

注册会员

Rank: 2

积分
2520
威望
241
金币
1040
贡献
0
发表于 2017-10-19 20:48:10 | 显示全部楼层
记得当年思浓思雨很有名~
回复

使用道具 举报

签到天数: 299 天

[LV.8]以坛为家I

90

主题

1144

帖子

1万

积分

版主

Rank: 7Rank: 7Rank: 7

积分
12075
威望
1271
金币
8004
贡献
380

斑竹专用勋章

发表于 2017-10-19 20:49:37 | 显示全部楼层
颇具实力的兄妹组合,九十年代当红流行歌手。谢谢苦人兄弟制作分享!音质很好!
回复

使用道具 举报

签到天数: 193 天

[LV.7]常住居民III

1

主题

768

帖子

1917

积分

禁止访问

积分
1917
威望
561
金币
27
贡献
0
发表于 2017-10-19 22:14:21 | 显示全部楼层
提示: 作者被禁止或删除 内容自动屏蔽
回复

使用道具 举报

签到天数: 499 天

[LV.9]以坛为家II

67

主题

1339

帖子

7313

积分

高级会员

Rank: 4

积分
7313
威望
2004
金币
1344
贡献
607

发帖高手勋章

发表于 2017-10-19 23:00:14 | 显示全部楼层
思浓思雨兄妹的专辑出的少休息苦人分享
回复

使用道具 举报

签到天数: 728 天

[LV.9]以坛为家II

35

主题

3277

帖子

1万

积分

论坛元老

Rank: 8Rank: 8

积分
10750
威望
2404
金币
2557
贡献
108
发表于 2017-10-20 01:07:15 | 显示全部楼层
他们兄妹组合好像就出过这么一个专辑后就没有动静了,编曲还是高枫呢
回复

使用道具 举报

签到天数: 723 天

[LV.9]以坛为家II

16

主题

1014

帖子

6791

积分

中级会员

Rank: 3Rank: 3

积分
6791
威望
511
金币
4633
贡献
122
发表于 2017-10-20 02:27:21 | 显示全部楼层
本帖最后由 生于七零年代 于 2017-10-20 12:43 编辑
mm-8305 发表于 2017-10-20 01:07
他们兄妹组合好像就出过这么一个专辑后就没有动静了,编曲还是高枫呢

还有一个磁带专辑,还和其它歌手合唱了几首歌。收录在其它歌手专辑里。思浓好像在两个拼盘专辑里个人还唱过两首歌。
TB2cZKgnHBmpuFjSZFuXXaG_XXa_!!387489338.jpg
有人说到再没有比歌曲更忠诚的事物了,人会跑远,记忆会消逝,多年以后,这些歌仍会带着我们的故事,在我们眼中闪现光芒。
回复

使用道具 举报

签到天数: 47 天

[LV.5]常住居民I

0

主题

541

帖子

2763

积分

禁止访问

积分
2763
威望
484
金币
1245
贡献
9
发表于 2017-10-20 07:46:26 | 显示全部楼层
提示: 作者被禁止或删除 内容自动屏蔽
回复

使用道具 举报

您需要登录后才可以回帖 登录 | 立即注册

本版积分规则

Title - Artist
0:00

    Archiver|手机版|小黑屋|数字音乐论坛 ( 津ICP备09009336号-1 )

    GMT+8, 2020-1-24 18:48 , Processed in 0.562608 second(s), 34 queries .

    Powered by Discuz! X3.4 Licensed

    Copyright © 2001-2020, Tencent Cloud.

    快速回复 返回顶部 返回列表