sunshine
开启辅助访问 天气与日历 收藏本站充币切换到宽版

数字音乐论坛

 找回密码
 立即注册
查看: 1794|回复: 8

[参赛作品] [串烧舞不停][WAV696MB/百度]

[复制链接] TA的其它主题
  • TA的每日心情
    无聊
    2021-7-3 17:37
  • 签到天数: 44 天

    [LV.5]常住居民I

    升级   36.53%

    53

    主题

    1289

    帖子

    9048

    积分

    金牌会员

    Rank: 5Rank: 5

    鲜花(0) 鸡蛋(0)
    发表于 2018-12-16 13:16:17 | 显示全部楼层 |阅读模式
    本帖最后由 苦人 于 2018-12-16 16:45 编辑

    IMG_20181213_0005.jpg

    专辑;串烧舞不停
    出版;福建长龙影视公司
    版权;雅风唱片提供
    编号;Y-071
    时间;不详
    格式;CD-WAV
    链接;
    游客,如果您要查看本帖隐藏内容请回复

    试听;[audio]
    [/audio]
    大小;696MB
    密码; 新建文本文档 (2).rar (111 Bytes, 下载次数: 7, 售价: 30 金币)





    目录;
    看封底【外语不佳】

    制作;苦人
    2018/12。
    IMG_20181213_0004.jpg

    Exact Audio Copy V1.2 from 12. August 2016

    EAC 抓取日志文件从13. 十二月 2018, 17:53

    串烧舞不停 / 串烧舞不停

    使用驱动器  :ASUS    DVD-E818A9T   b   Adapter: 1  ID: 1

    读取模式      : 可靠Secure
    使用精确流     : 是
    清空音频缓存    : 否
    使用 C2 指示器 : 否

    组合读写偏移校正:             : 0
    读取 Lead-In 和 Lead-Out : 否
    用静音填充抓取中丢失偏移的采样       : 是
    去除首尾静音块               : 否
    在CRC 计算中使用了空样本       : 是
    已用接口                  : Win NT 及 2000 本地 Win32 接口

    所用输出模式: : 内部 WAV 函数
    样本格式    : 44.100 Hz; 16 Bit; 立体声


    已抓取 CD 的 TOC

         音轨 |    起始    |    长度    |  起始扇区  |  结束扇区  
        --------------------------------------------
          1 |  0:00.00 |  2:58.46 |      0 |  13395
          2 |  2:58.46 |  2:34.11 |  13396 |  24956
          3 |  5:32.57 |  2:49.70 |  24957 |  37701
          4 |  8:22.52 |  4:12.22 |  37702 |  56623
          5 | 12:34.74 |  3:01.39 |  56624 |  70237
          6 | 15:36.38 |  4:44.19 |  70238 |  91556
          7 | 20:20.57 |  4:39.50 |  91557 | 112531
          8 | 25:00.32 |  3:44.52 | 112532 | 129383
          9 | 28:45.09 |  5:24.40 | 129384 | 153723
         10 | 34:09.49 |  3:30.16 | 153724 | 169489
         11 | 37:39.65 |  3:16.16 | 169490 | 184205
         12 | 40:56.06 |  3:05.04 | 184206 | 198084
         13 | 44:01.10 |  3:14.52 | 198085 | 212686
         14 | 47:15.62 |  1:39.17 | 212687 | 220128
         15 | 48:55.04 |  3:37.47 | 220129 | 236450
         16 | 52:32.51 |  2:50.43 | 236451 | 249243
         17 | 55:23.19 |  3:11.54 | 249244 | 263622
         18 | 58:34.73 |  3:02.60 | 263623 | 277332
         19 | 61:37.58 |  2:26.03 | 277333 | 288285
         20 | 64:03.61 |  4:56.63 | 288286 | 310548


    范围状态及错误

    已选择范围

         文件名 E:\我的制作\串烧舞不停\串烧舞不停 - 串烧舞不停.wav

         峰值电平 92.2 %
         抓取速度 3.8 X
         范围质量 100.0 %
         复制 CRC 126D449A
         复制成功

    没有错误发生

    状态报告结尾

    ---- CUETools DB Plugin V2.1.6

    [CTDB TOCID: emdZhNVxRY0Cq9Aed3SNXS0RKpQ-] found
    Submit result: emdZhNVxRY0Cq9Aed3SNXS0RKpQ- has been confirmed
    Track | CTDB Status
      1   | (2/3) Accurately ripped
      2   | (2/3) Accurately ripped
      3   | (3/3) Accurately ripped
      4   | (3/3) Accurately ripped
      5   | (2/3) Accurately ripped
      6   | (2/3) Accurately ripped
      7   | (2/3) Accurately ripped
      8   | (2/3) Accurately ripped
      9   | (2/3) Accurately ripped
    10   | (2/3) Accurately ripped
    11   | (2/3) Accurately ripped
    12   | (2/3) Accurately ripped
    13   | (2/3) Accurately ripped
    14   | (2/3) Accurately ripped
    15   | (2/3) Accurately ripped
    16   | (2/3) Accurately ripped
    17   | (2/3) Accurately ripped
    18   | (2/3) Accurately ripped
    19   | (2/3) Accurately ripped
    20   | (2/3) Accurately ripped


    ------------------------------------------------------------

    Exact Audio Copy V1.2 from 12. August 2016

    EAC 抓取日志文件从13. 十二月 2018, 17:53

    串烧舞不停 / 串烧舞不停

    使用驱动器  :ASUS    DVD-E818A9T   b   Adapter: 1  ID: 1

    读取模式      : 可靠Secure
    使用精确流     : 是
    清空音频缓存    : 否
    使用 C2 指示器 : 否

    组合读写偏移校正:             : 0
    读取 Lead-In 和 Lead-Out : 否
    用静音填充抓取中丢失偏移的采样       : 是
    去除首尾静音块               : 否
    在CRC 计算中使用了空样本       : 是
    已用接口                  : Win NT 及 2000 本地 Win32 接口

    所用输出模式: : 内部 WAV 函数
    样本格式    : 44.100 Hz; 16 Bit; 立体声


    已抓取 CD 的 TOC

         音轨 |    起始    |    长度    |  起始扇区  |  结束扇区  
        --------------------------------------------
          1 |  0:00.00 |  2:58.46 |      0 |  13395
          2 |  2:58.46 |  2:34.11 |  13396 |  24956
          3 |  5:32.57 |  2:49.70 |  24957 |  37701
          4 |  8:22.52 |  4:12.22 |  37702 |  56623
          5 | 12:34.74 |  3:01.39 |  56624 |  70237
          6 | 15:36.38 |  4:44.19 |  70238 |  91556
          7 | 20:20.57 |  4:39.50 |  91557 | 112531
          8 | 25:00.32 |  3:44.52 | 112532 | 129383
          9 | 28:45.09 |  5:24.40 | 129384 | 153723
         10 | 34:09.49 |  3:30.16 | 153724 | 169489
         11 | 37:39.65 |  3:16.16 | 169490 | 184205
         12 | 40:56.06 |  3:05.04 | 184206 | 198084
         13 | 44:01.10 |  3:14.52 | 198085 | 212686
         14 | 47:15.62 |  1:39.17 | 212687 | 220128
         15 | 48:55.04 |  3:37.47 | 220129 | 236450
         16 | 52:32.51 |  2:50.43 | 236451 | 249243
         17 | 55:23.19 |  3:11.54 | 249244 | 263622
         18 | 58:34.73 |  3:02.60 | 263623 | 277332
         19 | 61:37.58 |  2:26.03 | 277333 | 288285
         20 | 64:03.61 |  4:56.63 | 288286 | 310548


    范围状态及错误

    已选择范围

         文件名 E:\我的制作\串烧舞不停\串烧舞不停 - 串烧舞不停.wav

         峰值电平 92.2 %
         抓取速度 3.8 X
         范围质量 100.0 %
         复制 CRC 126D449A
         复制成功

    没有错误发生

    状态报告结尾

    ---- CUETools DB Plugin V2.1.6

    [CTDB TOCID: emdZhNVxRY0Cq9Aed3SNXS0RKpQ-] found
    Submit result: emdZhNVxRY0Cq9Aed3SNXS0RKpQ- has been confirmed
    Track | CTDB Status
      1   | (2/3) Accurately ripped
      2   | (2/3) Accurately ripped
      3   | (3/3) Accurately ripped
      4   | (3/3) Accurately ripped
      5   | (2/3) Accurately ripped
      6   | (2/3) Accurately ripped
      7   | (2/3) Accurately ripped
      8   | (2/3) Accurately ripped
      9   | (2/3) Accurately ripped
    10   | (2/3) Accurately ripped
    11   | (2/3) Accurately ripped
    12   | (2/3) Accurately ripped
    13   | (2/3) Accurately ripped
    14   | (2/3) Accurately ripped
    15   | (2/3) Accurately ripped
    16   | (2/3) Accurately ripped
    17   | (2/3) Accurately ripped
    18   | (2/3) Accurately ripped
    19   | (2/3) Accurately ripped
    20   | (2/3) Accurately ripped



    评分

    参与人数 1威望 +8 金币 +16 贡献 +8 收起 理由
    WSAN + 8 + 16 + 8 赞一个!

    查看全部评分

    回复 鲜花(0) 鸡蛋(0)

    使用道具 举报

  • TA的每日心情
    难过
    前天 18:46
  • 签到天数: 415 天

    [LV.9]以坛为家II

    升级   100%

    22

    主题

    1644

    帖子

    1万

    积分

    版主

    Rank: 7Rank: 7Rank: 7

    贵宾勋章

    鲜花(8) 鸡蛋(0)
    发表于 2018-12-16 15:17:07 | 显示全部楼层
    沙发 慢慢欣赏苦人兄的五连发 谢谢老兄
    回复 鲜花(8) 鸡蛋(0)

    使用道具 举报

  • TA的每日心情
    开心
    15 分钟前
  • 签到天数: 482 天

    [LV.9]以坛为家II

    升级   0%

    48

    主题

    5689

    帖子

    1万

    积分

    元老会员

    Rank: 6Rank: 6

    VIP勋章

    鲜花(2) 鸡蛋(0)
    发表于 2018-12-23 19:22:42 | 显示全部楼层
    长龙音像当年出版的唱片很多不是正版的,不过选曲都不错
    回复 鲜花(2) 鸡蛋(0)

    使用道具 举报

    该用户从未签到

    升级   100%

    1

    主题

    135

    帖子

    462

    积分

    禁止发言

    鲜花(0) 鸡蛋(0)
    发表于 2019-2-4 08:42:01 | 显示全部楼层
    提示: 作者被禁止或删除 内容自动屏蔽
    回复 鲜花(0) 鸡蛋(0)

    使用道具 举报

  • TA的每日心情
    无聊
    2021-6-22 10:41
  • 签到天数: 38 天

    [LV.5]常住居民I

    升级   38.9%

    1

    主题

    255

    帖子

    778

    积分

    新手上路

    Rank: 1

    鲜花(0) 鸡蛋(0)
    发表于 2019-10-18 19:51:18 | 显示全部楼层
    千禧年前后这种串烧比较多,也都做的不错。可惜现在的串烧越来越不耐听了!
    回复 鲜花(0) 鸡蛋(0)

    使用道具 举报

  • TA的每日心情
    开心
    6 小时前
  • 签到天数: 393 天

    [LV.9]以坛为家II

    升级   49.9%

    5

    主题

    1812

    帖子

    4996

    积分

    中级会员

    Rank: 3Rank: 3

    鲜花(0) 鸡蛋(0)
    发表于 2019-10-22 23:52:50 | 显示全部楼层
    这是引进版吧,感谢分享
    回复 鲜花(0) 鸡蛋(0)

    使用道具 举报

  • TA的每日心情
    开心
    2021-6-4 18:38
  • 签到天数: 186 天

    [LV.7]常住居民III

    升级   0%

    86

    主题

    2144

    帖子

    1万

    积分

    元老会员

    Rank: 6Rank: 6

    原创高手勋章

    鲜花(0) 鸡蛋(0)
    发表于 2020-3-4 13:25:11 | 显示全部楼层
    一般参赛作品都是压箱底的,必须支持,谢谢!
    回复 鲜花(0) 鸡蛋(0)

    使用道具 举报

  • TA的每日心情
    奋斗
    2021-7-26 21:00
  • 签到天数: 154 天

    [LV.7]常住居民III

    升级   2.3%

    21

    主题

    917

    帖子

    3092

    积分

    中级会员

    Rank: 3Rank: 3

    鲜花(0) 鸡蛋(0)
    发表于 2020-10-14 17:53:52 | 显示全部楼层
    浏览板块发现这么精彩的专辑,感谢苦人大哥的分享。
    回复 鲜花(0) 鸡蛋(0)

    使用道具 举报

  • TA的每日心情
    难过
    昨天 10:58
  • 签到天数: 113 天

    [LV.6]常住居民II

    升级   100%

     成长值: 280

    1

    主题

    272

    帖子

    738

    积分

    VIP

    Rank: 5Rank: 5

    VIP勋章

    鲜花(0) 鸡蛋(0)
    发表于 2021-7-15 15:49:20 | 显示全部楼层
    谢谢苦人分享串烧舞不停
    回复 鲜花(0) 鸡蛋(0)

    使用道具 举报

    您需要登录后才可以回帖 登录 | 立即注册

    本版积分规则

    快速回复 返回顶部 返回列表