开启辅助访问 天气预报 收藏本站

数字音乐论坛

 找回密码
 立即注册
查看: 2622|回复: 29

[友情专辑] [范琳琳 《心愿》][WAV整轨/1112M/百度]

[复制链接] TA的其它主题

签到天数: 267 天

[LV.8]以坛为家I

16

主题

861

帖子

2762

积分

注册会员

Rank: 2

积分
2762
威望
839
金币
79
贡献
144
发表于 2018-12-24 20:50:21 | 显示全部楼层 |阅读模式
本帖最后由 dongguangzhao 于 2018-12-26 19:49 编辑

1.jpg
2.jpg
3.jpg 4.jpg
5.jpg
《范琳琳:心愿》分为西北风篇和军旅篇两张CD,其中曲目都是范琳琳亲自从几百首作品中精心挑选而出。不仅收录了西北风风格的《信天游》、《黄土高坡》等家喻户晓的作品,更一并收录了范琳琳倾心打造的原创作品以及军旅题材的作品《使命》、《光荣与我们同行》等。范琳琳,海政文工团歌手,国家一级演员。80年代曾以《黄土高坡》、《信天游》、《我热恋的故乡》、《十五的月亮十六圆》等歌曲风靡乐坛。昔日西北风天后,再续这一季的经典!

范琳琳近代中国“民族流行音乐”的佼佼者,作为“西北风”主力唱将,她在这场席卷全国的音乐浪潮中迅速成长,确立了完全属于自己的风格。她那高亢、浑厚、充满实力和磁性的歌声,不仅赢得了广大听众的喜爱,更成为范琳琳立身歌坛的个性标识。唱功的成熟、优秀的乐感,对歌曲恰当的把握和细腻的感情处理,使她成为创作届争相合作的对象。她以敏锐的艺术觉悟和精湛的音乐构思创造性地实践了学院派与街头文化的完美结合、民族与流行的经典嫁接,她科学地把音乐艺术的内容与形式统一同时具有鲜明的个性,唱出独特的中国风情,对中国歌坛产生深远的影响。二十多年来,她与众多音乐人合作,始终坚持中国原创,不断探索民族与流行、艺术与流行相结合的音乐道路,锐意进取勤耕不辍,佳作不断硕果累累,成为当之无愧的中国歌唱家、民谣天后、声乐女王。

曲目
CD 1
01.中华尊严
02.黄土高坡
03.我热恋的故乡
04.苦乐年华
05.父老乡亲
06.故土难离
07.十五的月亮十六圆
08.黑头发飘起来
09.你是天上的明月
10.信天游
11.心愿
12.西部之恋
CD 2
01.红萝卜
02.命运的诉说
03.未了情
04.山情
05.黄河边的故事
06.伴你一生
07.带着梦去远航
08.离开
09.往日难追
10.真情
11.思念
12.光荣和我同行
CD 3
01.使命
02.我告诉你
03.水和月
04.华夏文明之歌
05.我焦急不安
06.是否该遗忘
07.雪花飞
08.海市蜃楼
09.我该怎么办
10.冬日融化的时候

[audio]
[/audio]
游客,如果您要查看本帖隐藏内容请回复

游客,如果您要查看本帖隐藏内容请回复

游客,如果您要查看本帖隐藏内容请回复
密码1.rar (94 Bytes, 下载次数: 5, 售价: 20 金币)

评分

参与人数 1威望 +24 金币 +48 贡献 +24 收起 理由
WSAN + 24 + 48 + 24

查看全部评分

回复

使用道具 举报

签到天数: 267 天

[LV.8]以坛为家I

16

主题

861

帖子

2762

积分

注册会员

Rank: 2

积分
2762
威望
839
金币
79
贡献
144
 楼主| 发表于 2018-12-24 20:55:51 | 显示全部楼层
实在不好意思,这些天都期末了特别的忙,终于今天晚上用点时间抓轨了,可惜家里没有扫描仪,只能用手机拍了上传了。

点评

谢谢楼主补的碟图,很漂亮。。。设计简洁又不失美感的碟面,个人很喜欢,辛苦了。  发表于 2018-12-27 06:55
非常感谢分享范琳琳的精选套碟,非常喜欢,可惜没有碟图有点遗憾,没扫描仪能否用手机拍下三张碟图,发上来,谢谢。。。  发表于 2018-12-25 12:26
回复

使用道具 举报

签到天数: 742 天

[LV.9]以坛为家II

1

主题

1504

帖子

3572

积分

中级会员

Rank: 3Rank: 3

积分
3572
威望
644
金币
780
贡献
0
发表于 2018-12-24 21:20:37 | 显示全部楼层
范琳琳大部分经典歌曲都涵盖在这精选集里了,另外还有两首男女声对唱的《世界是个小天地》和《晚霞迪斯科》也非常精彩,可惜没收录。
回复

使用道具 举报

签到天数: 721 天

[LV.9]以坛为家II

59

主题

1513

帖子

1万

积分

论坛元老

Rank: 8Rank: 8

积分
11484
威望
1800
金币
5801
贡献
565

发帖高手勋章

发表于 2018-12-24 23:11:58 | 显示全部楼层
看是星外星唱片,CD应该有些年月了,值得收藏。
回复

使用道具 举报

签到天数: 230 天

[LV.7]常住居民III

12

主题

893

帖子

2331

积分

注册会员

Rank: 2

积分
2331
威望
686
金币
41
贡献
25
发表于 2018-12-25 00:00:08 | 显示全部楼层
谢谢楼主老师分享,范琳琳虽然不是我非常喜欢的歌手,但她的西北风非常的独成一派,个性特色都非常具有东北味。
回复

使用道具 举报

签到天数: 189 天

[LV.7]常住居民III

2

主题

804

帖子

2244

积分

注册会员

Rank: 2

积分
2244
威望
600
金币
240
贡献
0
发表于 2018-12-25 08:24:57 | 显示全部楼层
最近在央视《歌声飘过40年》里看到她出来演唱了
回复

使用道具 举报

签到天数: 534 天

[LV.9]以坛为家II

6

主题

700

帖子

1332

积分

新手上路

Rank: 1

积分
1332
威望
150
金币
332
贡献
0
发表于 2018-12-25 08:59:50 | 显示全部楼层
很不错的CD
楼主是要分三次回复吗
谢谢楼主的分享
回复

使用道具 举报

签到天数: 466 天

[LV.9]以坛为家II

1

主题

836

帖子

2973

积分

注册会员

Rank: 2

积分
2973
威望
352
金币
1430
贡献
3
发表于 2018-12-25 09:14:19 | 显示全部楼层
最爱范姐,既能大气,又能温婉,能驾驭多种曲风!
回复

使用道具 举报

签到天数: 741 天

[LV.9]以坛为家II

1

主题

855

帖子

1584

积分

新手上路

Rank: 1

积分
1584
威望
114
金币
501
贡献
0
发表于 2018-12-25 09:26:57 | 显示全部楼层
感谢楼主抓鬼分享范琳琳的套碟,赞。。。
回复

使用道具 举报

签到天数: 741 天

[LV.9]以坛为家II

1

主题

855

帖子

1584

积分

新手上路

Rank: 1

积分
1584
威望
114
金币
501
贡献
0
发表于 2018-12-25 12:28:14 | 显示全部楼层
cd1

REM DISCID 9A0B620C
REM COMMENT "ExactAudioCopy v1.3"
PERFORMER "未知艺术家"
TITLE "未知标题"
REM COMPOSER ""
FILE "未知艺术家 - 未知标题.wav" WAVE
  TRACK 01 AUDIO
    TITLE "中华尊严"
    PERFORMER "范琳琳"
    REM COMPOSER ""
    INDEX 01 00:00:00
  TRACK 02 AUDIO
    TITLE "黄土高坡"
    PERFORMER "范琳琳"
    REM COMPOSER ""
    INDEX 00 04:49:04
    INDEX 01 04:51:04
  TRACK 03 AUDIO
    TITLE "我热恋的故乡"
    PERFORMER "范琳琳"
    REM COMPOSER ""
    INDEX 00 08:50:70
    INDEX 01 08:52:70
  TRACK 04 AUDIO
    TITLE "苦乐年华"
    PERFORMER "范琳琳"
    REM COMPOSER ""
    INDEX 00 13:01:14
    INDEX 01 13:03:14
  TRACK 05 AUDIO
    TITLE "父老乡亲"
    PERFORMER "范琳琳"
    REM COMPOSER ""
    INDEX 00 16:15:16
    INDEX 01 16:17:16
  TRACK 06 AUDIO
    TITLE "故土难离"
    PERFORMER "范琳琳"
    REM COMPOSER ""
    INDEX 00 20:06:13
    INDEX 01 20:08:13
  TRACK 07 AUDIO
    TITLE "十五的月亮十六圆"
    PERFORMER "范琳琳"
    REM COMPOSER ""
    INDEX 00 24:33:31
    INDEX 01 24:35:31
  TRACK 08 AUDIO
    TITLE "黑头发飘起来"
    PERFORMER "范琳琳"
    REM COMPOSER ""
    INDEX 00 27:28:26
    INDEX 01 27:30:26
  TRACK 09 AUDIO
    TITLE "你是天上的明月"
    PERFORMER "范琳琳"
    REM COMPOSER ""
    INDEX 00 32:16:29
    INDEX 01 32:18:29
  TRACK 10 AUDIO
    TITLE "信天游"
    PERFORMER "范琳琳"
    REM COMPOSER ""
    INDEX 00 37:06:42
    INDEX 01 37:08:42
  TRACK 11 AUDIO
    TITLE "心愿"
    PERFORMER "范琳琳"
    REM COMPOSER ""
    INDEX 00 40:22:59
    INDEX 01 40:24:59
  TRACK 12 AUDIO
    TITLE "西部之恋"
    PERFORMER "范琳琳"
    REM COMPOSER ""
    INDEX 00 44:56:28
    INDEX 01 44:58:28
回复

使用道具 举报

您需要登录后才可以回帖 登录 | 立即注册

本版积分规则

Title - Artist
0:00

    Archiver|手机版|小黑屋|数字音乐论坛 ( 津ICP备09009336号-1 )

    GMT+8, 2020-1-24 19:46 , Processed in 0.625120 second(s), 34 queries .

    Powered by Discuz! X3.4 Licensed

    Copyright © 2001-2020, Tencent Cloud.

    快速回复 返回顶部 返回列表